[ create a new paste ] login | about

Link: http://codepad.org/guFpCwYq    [ raw code | fork ]

Plain Text, pasted on Mar 12:
foobar2000 1.5 / Dynamic Range Meter 1.1.1
log date: 2020-03-12 23:03:16

--------------------------------------------------------------------------------
Analyzed: Sarah Brightman & The London Symphony Orchestra / Time To Say Goodbye
--------------------------------------------------------------------------------

DR         Peak         RMS     Duration Track
--------------------------------------------------------------------------------
DR6       -1.17 dB    -9.68 dB      4:06 01-Time To Say Goodbye (Con Te Partirò)
DR7       -1.63 dB   -12.74 dB      4:46 02-No One Like you
DR6       -1.47 dB    -9.52 dB      4:00 03-Just Show Me How To Love You
DR7       -1.51 dB   -12.09 dB      3:49 04-Tú Quieres Volver
DR7       -1.74 dB   -11.41 dB      3:08 05-In Pace
DR7       -0.49 dB   -10.15 dB      3:33 06-There For Me
DR7       -1.77 dB   -11.14 dB      3:25 07-Bilitis-Générique
DR6       -1.46 dB    -9.90 dB      3:56 08-Who Wants to Live Forever
DR7       -1.82 dB   -10.92 dB      4:04 09-La Wally
DR7       -0.72 dB   -10.62 dB      5:26 10-Naturaleza Muerta
DR7       -0.01 dB   -10.46 dB      3:52 11-En Aranjuez Con Tu Amor
DR10      -1.98 dB   -15.54 dB      2:31 12-In Trutina
DR8       -1.86 dB   -13.02 dB      2:41 13-O Mia Babbino Caro (Gianni Shicci)
DR7       -1.84 dB   -10.92 dB      3:12 14-Alleluja
--------------------------------------------------------------------------------

Number of tracks:  14
Official DR value: DR7

Samplerate:        88200 Hz
Channels:          2
Bits per sample:   24
Bitrate:           2704 kbps
Codec:             FLAC
================================================================================




Create a new paste based on this one


Comments: