[ create a new paste ] login | about

Link: http://codepad.org/gvV3rYZY    [ raw code | fork ]

Plain Text, pasted on Apr 1:
foobar2000 1.3.14 / Dynamic Range Meter 1.1.1
log date: 2017-04-01 08:10:25

--------------------------------------------------------------------------------
Analyzed: Grand Funk / All The Girls In The World Beware!!! AF
--------------------------------------------------------------------------------

DR         Peak         RMS     Duration Track
--------------------------------------------------------------------------------
DR11       0.00 dB   -12.75 dB      3:51 01-Responsibility
DR11      -0.32 dB   -13.65 dB      4:21 02-Runnin'
DR10      -0.42 dB   -13.68 dB      5:00 03-Life
DR11      -0.53 dB   -13.46 dB      2:31 04-Look At Granny Run Run
DR11       0.00 dB   -15.14 dB      3:35 05-Memories
DR11       0.00 dB   -13.43 dB      3:29 06-All The Girls In The World Beware
DR10      -1.00 dB   -12.88 dB      2:54 07-Wild
DR11       0.00 dB   -14.14 dB      7:33 08-Good & Evil
DR11      -0.30 dB   -13.37 dB      2:55 09-Bad Time
DR12      -0.50 dB   -14.99 dB      3:24 10-Some Kind Of Wonderful
--------------------------------------------------------------------------------

Number of tracks:  10
Official DR value: DR11

Samplerate:        44100 Hz
Channels:          2
Bits per sample:   16
Bitrate:           877 kbps
Codec:             FLAC
================================================================================




Create a new paste based on this one


Comments: