[ create a new paste ] login | about

Link: http://codepad.org/h19JiQzO    [ raw code | fork ]

Plain Text, pasted on May 31:
foobar2000 1.4.4 / Dynamic Range Meter 1.1.1
log date: 2019-05-30 20:02:08

--------------------------------------------------------------------------------
Analyzed: Mott The Hoople / Brain Capers
--------------------------------------------------------------------------------

DR         Peak         RMS     Duration Track
--------------------------------------------------------------------------------
DR7       -0.10 dB    -8.62 dB      4:54 01-Death May Be Your Santa Claus
DR8       -0.10 dB   -10.67 dB      4:13 02-Your Own Backyard
DR9       -0.10 dB   -11.76 dB      4:34 03-Darkness Darkness
DR7       -0.10 dB    -9.47 dB      9:16 04-The Journey
DR8       -0.10 dB    -9.55 dB      4:53 05-Sweet Angeline
DR8       -0.10 dB   -11.75 dB      3:49 06-Second Love
DR7       -0.10 dB    -8.37 dB      5:01 07-The Moon Upstairs
DR7       -0.10 dB    -8.24 dB      1:16 08-The Wheel Of The Quivering Meat Conception
--------------------------------------------------------------------------------

Number of tracks:  8
Official DR value: DR8

Samplerate:        192000 Hz
Channels:          2
Bits per sample:   24
Bitrate:           5778 kbps
Codec:             FLAC
================================================================================




Create a new paste based on this one


Comments: