[ create a new paste ] login | about

Link: http://codepad.org/h3wZHVfb    [ raw code | fork ]

Plain Text, pasted on Jul 5:
foobar2000 1.1.18 / Dynamic Range Meter 1.1.1
log date: 2013-01-02 15:14:10

--------------------------------------------------------------------------------
Analyzed: Edo De Waart, Rotterdam Philharmonic Orchestra & Daniel Chorzempa / Super Audio CD Sampler - RQR (Hybrid SACD) (1)
          Eliahu Inbal & Philharmonia Orchestra / Super Audio CD Sampler - RQR (Hybrid SACD) (2)
          Eliahu Inbal, Radio Symphony Orchestra Frankfurt & Werner Haas / Super Audio CD Sampler - RQR (Hybrid SACD) (3)
          Eugen Evetz, Russian Orthodox Cathedral Choir & Nicolai Gedda / Super Audio CD Sampler - RQR (Hybrid SACD) (4)
          Grumiax Quartet & George Pieterson / Super Audio CD Sampler - RQR (Hybrid SACD) (5)
          I Musici & Severino Gazzelloni / Super Audio CD Sampler - RQR (Hybrid SACD) (6)
          Jaap Schroder, Concerto Amsterdam & Daniel Chorzempa / Super Audio CD Sampler - RQR (Hybrid SACD) (7-8)
          Josef Krips & Royal Concertgebouw Orchestra / Super Audio CD Sampler - RQR (Hybrid SACD) (9)
          Seiji Ozawa & Orchestre De Paris / Super Audio CD Sampler - RQR (Hybrid SACD) (10)
          Silvio Varviso & Dresden State Orchestra / Super Audio CD Sampler - RQR (Hybrid SACD) (11)
          Sir Colin Davis & Boston Symphony Orchestra / Super Audio CD Sampler - RQR (Hybrid SACD) (12)
          Sir Colin Davis, BBC Symphony Orchestra & Stephen Kovacevich / Super Audio CD Sampler - RQR (Hybrid SACD) (13)
          Sir Neville Marriner & Academy of St Martin in the Fields / Super Audio CD Sampler - RQR (Hybrid SACD) (14-15)
          Sir Neville Marriner, Academy of St Martin in the Fields & Alan Civil / Super Audio CD Sampler - RQR (Hybrid SACD) (16)
--------------------------------------------------------------------------------

DR         Peak         RMS     Duration Track
--------------------------------------------------------------------------------
DR14      -0.01 dB   -19.61 dB      7:53 16-Symphony No.3 In C Minor, Op.78 'Organ Symphony' - Maestoso
DR12      -0.41 dB   -18.90 dB      5:47 12-Symphony No.3 In E Flat, Op.97 'Rhenish' - Lebhaft
DR14      -2.53 dB   -26.37 dB      3:44 10-'Rhapsody On A Theme By Paganini' Op. 43 - Introduction & Variations 1-6
DR13      -4.93 dB   -25.15 dB      3:05 14-The Lord's Prayer
DR12      -4.84 dB   -24.03 dB      5:48 07-Clarinet Quintet In A, Kv581 - Larghetto
DR11      -5.68 dB   -20.44 dB      2:16 06-Flute Concerto In F, Op. 10 No. 1 'La Tempesta Di Mare' - Allegro  
DR13      -6.57 dB   -26.46 dB      2:20 05-Organ Concerto No. 5 In F, Op. 4 No. 5 - Presto
DR13      -8.10 dB   -25.60 dB      1:52 13-Organ Concerto No.3 In G Minor, Op.4 No.3 - Gavotte
DR11      -4.82 dB   -20.98 dB      3:53 15-Symphony No.31 In D, Kv297 'Paris' - Allegro
DR13      -5.06 dB   -23.00 dB      8:01 01-Symphony No.6 In B Minor Op. 74 'Pathétique' - Allegro Con Grazia
DR11      -2.85 dB   -17.25 dB      3:12 11-Lohengrin - Prelude To Act III
DR14      -7.32 dB   -28.13 dB      6:49 04-Symphony No. 4 In A Op.90  'Italian' - Andante Con Moto
DR13      -6.44 dB   -27.06 dB      5:32 02-Piano Concerto No.4 In G Op. 58 - Andante Con Moto 
DR14      -0.60 dB   -20.72 dB      7:07 08-Il Barbiere Di Siviglia - Overture
DR12      -5.20 dB   -23.32 dB      3:58 09-Symphony No.7a In G, Kv45a - Andante
DR13      -7.63 dB   -24.77 dB      4:38 03-Horn Concerto In D Kv 386b (412/514) - Allegro
--------------------------------------------------------------------------------

Number of tracks:  16
Official DR value: DR13

Samplerate:        88200 Hz
Channels:          2
Bits per sample:   24
Bitrate:           2472 kbps
Codec:             FLAC
================================================================================




Create a new paste based on this one


Comments: