[ create a new paste ] login | about

Link: http://codepad.org/h4WaE8Sk    [ raw code | fork ]

Plain Text, pasted on Aug 30:
foobar2000 1.3.7 / Dynamic Range Meter 1.1.1
log date: 2015-07-28 06:55:22

--------------------------------------------------------------------------------
Analyzed: Bee Gees / Saturday Night Fever (1-6)
          David Shire / Saturday Night Fever (7-9)
          K.C. & the Sunshine Band / Saturday Night Fever (10)
          Kool & the Gang / Saturday Night Fever (11)
          M.F.S.B. / Saturday Night Fever (12)
          Ralph MacDonald / Saturday Night Fever (13)
          Tavares / Saturday Night Fever (14)
          The Trammps / Saturday Night Fever (15)
          Walter Murphy / Saturday Night Fever (16)
          Yvonne Elliman / Saturday Night Fever (17)
--------------------------------------------------------------------------------

DR         Peak         RMS     Duration Track
--------------------------------------------------------------------------------
DR13      -0.20 dB   -14.47 dB      4:50 01-Stayin' Alive
DR12      -0.34 dB   -15.44 dB      4:06 02-How Deep Is Your Love
DR12      -0.10 dB   -14.24 dB      3:32 03-Night Fever
DR12      -0.58 dB   -14.61 dB      3:18 04-More Than a Woman
DR13      -0.12 dB   -15.31 dB      3:45 12-Jive Talkin'
DR13      -0.19 dB   -15.53 dB      4:16 13-You Should Be Dancing
DR12      -0.29 dB   -14.08 dB      4:45 08-Manhattan Skyline
DR13       0.00 dB   -14.95 dB      5:14 10-Night on Disco Mountain
DR12      -0.14 dB   -14.39 dB      3:52 15-Salsation
DR12      -0.18 dB   -14.99 dB      2:17 14-Boogie Shoes
DR12      -0.32 dB   -14.21 dB      4:02 11-Open Sesame
DR11      -0.06 dB   -12.63 dB      4:15 16-K-Jee
DR14      -1.21 dB   -16.63 dB      7:52 09-Calypso Breakdown
DR12      -0.15 dB   -13.47 dB      3:18 07-More Than a Woman
DR12       0.00 dB   -13.90 dB     10:53 17-Disco Inferno
DR13      -0.19 dB   -15.97 dB      3:04 06-A Fifth of Beethoven
DR13      -0.61 dB   -15.29 dB      3:00 05-If I Can't Have You
--------------------------------------------------------------------------------

Number of tracks:  17
Official DR value: DR12

Samplerate:        44100 Hz
Channels:          2
Bits per sample:   16
Bitrate:           806 kbps
Codec:             FLAC
================================================================================




Create a new paste based on this one


Comments: