[ create a new paste ] login | about

Link: http://codepad.org/h4vm4FVp    [ raw code | fork ]

Plain Text, pasted on Jul 23:
foobar2000 1.3.17 / Dynamic Range Meter 1.1.1
log date: 2018-07-23 13:38:13

--------------------------------------------------------------------------------
Analyzed: The Band / Music From Big Pink
--------------------------------------------------------------------------------

DR         Peak         RMS     Duration Track
--------------------------------------------------------------------------------
DR13      -8.00 dB   -24.03 dB      5:24 01-Tears Of Rage
DR14      -6.36 dB   -23.74 dB      3:23 02-To Kingdom Come
DR13      -8.71 dB   -23.34 dB      3:35 03-In A Station
DR12      -8.83 dB   -23.77 dB      2:59 04-Caledonia Mission
DR14      -6.65 dB   -24.97 dB      4:39 05-The Weight
DR13      -7.89 dB   -23.24 dB      3:06 06-We Can Talk
DR13      -6.28 dB   -21.22 dB      3:06 07-Long Black Veil
DR13      -5.91 dB   -22.24 dB      5:19 08-Chest Fever
DR11      -7.47 dB   -21.52 dB      4:04 09-Lonesome Suzie
DR13      -7.23 dB   -23.13 dB      3:14 10-This Wheel's On Fire
DR12      -8.16 dB   -22.93 dB      3:14 11-I Shall Be Released
--------------------------------------------------------------------------------

Number of tracks:  11
Official DR value: DR13

Samplerate:        2822400 Hz / PCM Samplerate: 176400 Hz
Channels:          2
Bits per sample:   1
Bitrate:           5645 kbps
Codec:             DSD64
================================================================================




Create a new paste based on this one


Comments: