[ create a new paste ] login | about

Link: http://codepad.org/h9G28oW7    [ raw code | fork ]

Plain Text, pasted on Mar 9:
Exact Audio Copy V1.3 from 2. September 2016

Отчёт EAC об извлечении, выполненном 10. ноября 2017, 19:40

Various Artists / Rock Tributes - Def Leppard - CD 4

Дисковод: PLEXTOR DVDR   PX-L890SA   Adapter: 1  ID: 0

Режим чтения                 : Достоверность
Использование точного потока : Да
Отключение кэша аудио        : Да
Использование указателей C2  : Нет

Коррекция смещения при чтении                     : 6
Способность читать области Lead-in и Lead-out     : Нет
Заполнение пропущенных сэмплов тишиной            : Да
Удаление блоков с тишиной в начале и конце        : Нет
При вычислениях CRC использовались нулевые сэмплы : Да
Интерфейс                                         : Встроенный Win32-интерфейс для Win NT/2000
Обработка зазоров                                 : Добавлено к предыдущему треку

Выходной формат          : Пользовательский кодировщик
Выбранный битрейт        : 896 kBit/s
Качество                 : Высокий
Добавление ID3-тега      : Нет
Утилита сжатия           : C:\Program Files\Exact Audio Copy\Flac\flac.exe
Дополнительные параметры : -V -8 -T "Genre=%genre%" -T "Artist=%artist%" -T "Title=%title%" -T "Album=%albumtitle%" -T "Date=%year%" -T "Tracknumber=%tracknr%" -T "Comment=%comment%" %source%


TOC извлечённого CD

     Трек |   Старт  | Длительность | Начальный сектор | Конечный сектор 
    ---------------------------------------------------------------------
       1  |  0:00.00 |    3:46.40   |           0      |      16989      
       2  |  3:46.40 |    3:06.08   |       16990      |      30947      
       3  |  6:52.48 |    4:10.07   |       30948      |      49704      
       4  | 11:02.55 |    4:14.23   |       49705      |      68777      
       5  | 15:17.03 |    4:31.21   |       68778      |      89123      
       6  | 19:48.24 |    4:32.22   |       89124      |     109545      
       7  | 24:20.46 |    4:05.38   |      109546      |     127958      
       8  | 28:26.09 |    4:28.66   |      127959      |     148124      
       9  | 32:55.00 |    4:52.07   |      148125      |     170031      
      10  | 37:47.07 |    3:28.33   |      170032      |     185664      
      11  | 41:15.40 |    4:24.52   |      185665      |     205516      
      12  | 45:40.17 |    4:56.61   |      205517      |     227777      


Трек  1

     Имя файла E:\Classic Rock & Hard Rock\VA - Rock Tributes 5 CD Box 2006\CD 4 - Rock Tributes - Def Leppard\01 John Corabi (Motley Crue) - Wasted.wav

     Длина предзазора  0:00:02.00

     Пиковый уровень 98.8 %
     Скорость извлечения 4.4 X
     Качество трека 100.0 %
     CRC теста 28020851
     CRC копии 28020851
     Точность не определена (достоверность 4)  [0310DE9C], AccurateRip вернул [94146345]  (AR v2)
     Копирование... OK

Трек  2

     Имя файла E:\Classic Rock & Hard Rock\VA - Rock Tributes 5 CD Box 2006\CD 4 - Rock Tributes - Def Leppard\02 Joe Leste (Bang Tango) - Rock Brigade.wav

     Пиковый уровень 98.8 %
     Скорость извлечения 4.4 X
     Качество трека 100.0 %
     CRC теста 6C09E6D7
     CRC копии 6C09E6D7
     Точность не определена (достоверность 4)  [73E4366C], AccurateRip вернул [31FFBABA]  (AR v2)
     Копирование... OK

Трек  3

     Имя файла E:\Classic Rock & Hard Rock\VA - Rock Tributes 5 CD Box 2006\CD 4 - Rock Tributes - Def Leppard\03 Jani Lane (Warrant) - Photograph.wav

     Пиковый уровень 98.8 %
     Скорость извлечения 4.5 X
     Качество трека 100.0 %
     CRC теста 7BB37476
     CRC копии 7BB37476
     Точность не определена (достоверность 4)  [AEEAEFFE], AccurateRip вернул [DA94A9D1]  (AR v2)
     Копирование... OK

Трек  4

     Имя файла E:\Classic Rock & Hard Rock\VA - Rock Tributes 5 CD Box 2006\CD 4 - Rock Tributes - Def Leppard\04 Kevin DuBrow (Quiet Riot) - Rock, Rock (Fredco Remix).wav

     Пиковый уровень 98.8 %
     Скорость извлечения 4.1 X
     Качество трека 99.9 %
     CRC теста 8F0E110D
     CRC копии 8F0E110D
     Точность не определена (достоверность 4)  [8A6ACDC5], AccurateRip вернул [B1822C81]  (AR v2)
     Копирование... OK

Трек  5

     Имя файла E:\Classic Rock & Hard Rock\VA - Rock Tributes 5 CD Box 2006\CD 4 - Rock Tributes - Def Leppard\05 Stevie Rachelle (Tuff) - Too Late For Love.wav

     Пиковый уровень 98.8 %
     Скорость извлечения 4.6 X
     Качество трека 100.0 %
     CRC теста 31622D1A
     CRC копии 31622D1A
     Точность не определена (достоверность 4)  [C8403FE2], AccurateRip вернул [BC4139B0]  (AR v2)
     Копирование... OK

Трек  6

     Имя файла E:\Classic Rock & Hard Rock\VA - Rock Tributes 5 CD Box 2006\CD 4 - Rock Tributes - Def Leppard\06 Steve Whiteman (Kix) - Foolin'.wav

     Пиковый уровень 98.8 %
     Скорость извлечения 4.7 X
     Качество трека 100.0 %
     CRC теста 5877E138
     CRC копии 5877E138
     Точность не определена (достоверность 4)  [53B5E217], AccurateRip вернул [54008168]  (AR v2)
     Копирование... OK

Трек  7

     Имя файла E:\Classic Rock & Hard Rock\VA - Rock Tributes 5 CD Box 2006\CD 4 - Rock Tributes - Def Leppard\07 Kelly Hansen (Hurricane) - Rock of Ages.wav

     Пиковый уровень 98.8 %
     Скорость извлечения 4.6 X
     Качество трека 100.0 %
     CRC теста 2926F080
     CRC копии 2926F080
     Точность не определена (достоверность 4)  [E305469A], AccurateRip вернул [7B70DBCD]  (AR v2)
     Копирование... OK

Трек  8

     Имя файла E:\Classic Rock & Hard Rock\VA - Rock Tributes 5 CD Box 2006\CD 4 - Rock Tributes - Def Leppard\08 Phil Lewis (L.A. Guns) - Bringin' On The Heartbreak.wav

     Пиковый уровень 98.8 %
     Скорость извлечения 4.2 X
     Качество трека 99.9 %
     CRC теста C7A6C34A
     CRC копии C7A6C34A
     Точность не определена (достоверность 4)  [9D621452], AccurateRip вернул [33253883]  (AR v2)
     Копирование... OK

Трек  9

     Имя файла E:\Classic Rock & Hard Rock\VA - Rock Tributes 5 CD Box 2006\CD 4 - Rock Tributes - Def Leppard\09 Jason McMaster (Dangerous Toys) - Let It Go.wav

     Пиковый уровень 98.8 %
     Скорость извлечения 4.7 X
     Качество трека 100.0 %
     CRC теста 60C829F4
     CRC копии 60C829F4
     Точность не определена (достоверность 4)  [F35F43A8], AccurateRip вернул [98B13DA6]  (AR v2)
     Копирование... OK

Трек 10

     Имя файла E:\Classic Rock & Hard Rock\VA - Rock Tributes 5 CD Box 2006\CD 4 - Rock Tributes - Def Leppard\10 Jizzy Pearl (Love,Hate) - High & Dry.wav

     Пиковый уровень 98.8 %
     Скорость извлечения 4.5 X
     Качество трека 100.0 %
     CRC теста 1B7A2C8C
     CRC копии 1B7A2C8C
     Точность не определена (достоверность 4)  [81357821], AccurateRip вернул [A7A8977A]  (AR v2)
     Копирование... OK

Трек 11

     Имя файла E:\Classic Rock & Hard Rock\VA - Rock Tributes 5 CD Box 2006\CD 4 - Rock Tributes - Def Leppard\11 Kory Clarke (Space Age Cowboys,Warrior Soul) - You Got Me Running.wav

     Пиковый уровень 98.8 %
     Скорость извлечения 4.7 X
     Качество трека 100.0 %
     CRC теста 56A06EFE
     CRC копии 56A06EFE
     Точность не определена (достоверность 4)  [D8A59A96], AccurateRip вернул [B44BD619]  (AR v2)
     Копирование... OK

Трек 12

     Имя файла E:\Classic Rock & Hard Rock\VA - Rock Tributes 5 CD Box 2006\CD 4 - Rock Tributes - Def Leppard\12 Paul Shortino (Rough Cutt) - On Through The Night.wav

     Пиковый уровень 98.8 %
     Скорость извлечения 4.2 X
     Качество трека 99.9 %
     CRC теста E7D33A41
     CRC копии E7D33A41
     Точность не определена (достоверность 4)  [1E54CEE1], AccurateRip вернул [51FD70D9]  (AR v2)
     Копирование... OK


Ни один трек не прошёл проверки на точность
В вашей базе может быть иной вариант штамповки диска

Ошибок не произошло

Конец отчёта

---- CUETools DB Plugin V2.1.6

[CTDB TOCID: pUHpALDlOAa7SYPDmD8foXALER8-] found
Submit result: pUHpALDlOAa7SYPDmD8foXALER8- has been confirmed
Track | CTDB Status
  1   | (4/4) Accurately ripped
  2   | (4/4) Accurately ripped
  3   | (4/4) Accurately ripped
  4   | (4/4) Accurately ripped
  5   | (4/4) Accurately ripped
  6   | (4/4) Accurately ripped
  7   | (4/4) Accurately ripped
  8   | (4/4) Accurately ripped
  9   | (4/4) Accurately ripped
 10   | (4/4) Accurately ripped
 11   | (4/4) Accurately ripped
 12   | (4/4) Accurately ripped


==== Контрольная сумма отчёта 8D9FAE7B7ECE61F375259CCFCF38001175F6FD88ABE8542FEE779AF6D9F2B947 ====



Create a new paste based on this one


Comments: