[ create a new paste ] login | about

Link: http://codepad.org/hB8fgJh8    [ raw code | fork ]

Plain Text, pasted on Feb 10:
foobar2000 1.5 / Dynamic Range Meter 1.1.1
log date: 2020-02-10 21:42:43

--------------------------------------------------------------------------------
Analyzed: The Wes Montgomery Trio / The Wes Montgomery Trio
--------------------------------------------------------------------------------

DR         Peak         RMS     Duration Track
--------------------------------------------------------------------------------
DR13      -1.08 dB   -17.71 dB      4:59 01-'Round Midnight
DR13      -0.57 dB   -16.10 dB      3:20 02-Yesterdays
DR11      -3.17 dB   -17.27 dB      3:18 03-The End of a Love Affair
DR12      -1.50 dB   -17.81 dB      4:41 04-Whisper Not
DR11      -2.83 dB   -16.45 dB      2:59 05-Ecaroh
DR14      -0.01 dB   -16.52 dB      4:08 06-Satin Doll (take 5)
DR12      -0.90 dB   -16.18 dB      4:00 07-Satin Doll
DR14      -0.70 dB   -16.54 dB      4:37 08-Missile Blues (take 5)
DR13      -1.19 dB   -15.96 dB      6:04 09-Missile Blues
DR11      -1.73 dB   -18.09 dB      4:55 10-Too Late Now
DR12      -0.77 dB   -15.53 dB      5:32 11-Jingles
--------------------------------------------------------------------------------

Number of tracks:  11
Official DR value: DR12

Samplerate:        88200 Hz
Channels:          2
Bits per sample:   24
Bitrate:           2725 kbps
Codec:             FLAC
================================================================================




Create a new paste based on this one


Comments: