[ create a new paste ] login | about

Link: http://codepad.org/hBAHtOKx    [ raw code | fork ]

Plain Text, pasted on May 28:
foobar2000 1.3.17 / Dynamic Range Meter 1.1.1
log date: 2018-05-27 19:29:37

--------------------------------------------------------------------------------
Analyzed: Hugo Montenegro / Rocket Man Mammy Blue
--------------------------------------------------------------------------------

DR         Peak         RMS     Duration Track
--------------------------------------------------------------------------------
DR7       -6.73 dB   -22.66 dB      3:22 01-Blastoff  
DR8       -7.52 dB   -25.42 dB      4:02 02-Rocket Man  
DR9       -7.06 dB   -25.68 dB      3:33 03-The Bitch is Back  
DR9       -9.18 dB   -26.66 dB      3:15 04-Goodbye Yellow Brick Road  
DR8       -6.93 dB   -24.89 dB      4:04 05-Philadelphia Freedom  
DR8       -6.78 dB   -24.67 dB      3:23 06-Take Me to the Pilot  
DR9       -7.19 dB   -27.38 dB      4:05 07-Your Song  
DR9       -6.99 dB   -25.46 dB      2:52 08-Lowdown Hoedown  
DR9       -7.57 dB   -26.99 dB      2:44 09-Daniel 
DR9       -8.28 dB   -27.04 dB      3:07 10-Lucy in the Sky with Diamonds  
DR8       -8.14 dB   -25.38 dB      1:02 11-Splashdown  
DR8       -7.82 dB   -24.71 dB      2:49 12-All I Can Do 
DR9       -7.52 dB   -27.00 dB      3:14 13-Uncle Albert & Admiral Halsey 
DR9       -7.82 dB   -27.97 dB      2:58 14-Superstar 
DR9       -8.53 dB   -27.14 dB      2:25 15-If I Were a Rich Man  Fiddler on the Roof 
DR9       -7.97 dB   -28.30 dB      2:37 16-Mammy Blue  
DR8       -9.35 dB   -26.22 dB      3:10 17-I Feel the Earth Move  
DR9       -6.73 dB   -25.57 dB      2:42 18-Peace Train  
DR9       -6.17 dB   -26.77 dB      3:56 19-The Night They Drove Old Dixie Down  
DR9       -8.35 dB   -27.45 dB      2:53 20-Zingaro 
DR8       -7.76 dB   -24.67 dB      3:26 21-Yo Yo  
DR9       -7.64 dB   -26.79 dB      4:45 22-Movin On 
--------------------------------------------------------------------------------

Number of tracks:  22
Official DR value: DR9

Samplerate:        2822400 Hz / PCM Samplerate: 176400 Hz
Channels:          6
Bits per sample:   1
Bitrate:           16934 kbps
Codec:             DST64
================================================================================

--------------------------------------------------------------------------------
Analyzed: Hugo Montenegro / Rocket Man Mammy Blue
--------------------------------------------------------------------------------

DR         Peak         RMS     Duration Track
--------------------------------------------------------------------------------
DR12      -5.75 dB   -19.42 dB      3:22 01-Blastoff  
DR13      -5.55 dB   -20.97 dB      4:02 02-Rocket Man  
DR13      -6.60 dB   -22.14 dB      3:33 03-The Bitch is Back  
DR12      -7.84 dB   -22.61 dB      3:15 04-Goodbye Yellow Brick Road  
DR13      -5.62 dB   -21.31 dB      4:04 05-Philadelphia Freedom  
DR13      -7.69 dB   -22.92 dB      3:23 06-Take Me to the Pilot  
DR13      -6.75 dB   -23.35 dB      4:05 07-Your Song  
DR13      -6.73 dB   -22.49 dB      2:52 08-Lowdown Hoedown  
DR14      -5.81 dB   -23.41 dB      2:44 09-Daniel 
DR13      -7.04 dB   -23.50 dB      3:07 10-Lucy in the Sky with Diamonds  
DR12      -7.92 dB   -22.44 dB      1:02 11-Splashdown  
DR10      -8.59 dB   -21.61 dB      2:49 12-All I Can Do 
DR10     -10.60 dB   -22.80 dB      3:14 13-Uncle Albert & Admiral Halsey 
DR10     -10.08 dB   -24.13 dB      2:58 14-Superstar 
DR11      -8.98 dB   -23.70 dB      2:25 15-If I Were a Rich Man  Fiddler on the Roof 
DR11      -8.08 dB   -24.01 dB      2:37 16-Mammy Blue  
DR11      -8.26 dB   -22.35 dB      3:02 17-I Feel the Earth Move  
DR11      -7.32 dB   -22.03 dB      2:42 18-Peace Train  
DR12      -9.24 dB   -25.23 dB      3:55 19-The Night They Drove Old Dixie Down  
DR10      -8.41 dB   -22.70 dB      2:54 20-Zingaro 
DR10      -9.39 dB   -22.26 dB      3:25 21-Yo Yo  
DR11      -9.72 dB   -23.56 dB      4:46 22-Movin On 
--------------------------------------------------------------------------------

Number of tracks:  22
Official DR value: DR12

Samplerate:        2822400 Hz / PCM Samplerate: 176400 Hz
Channels:          2
Bits per sample:   1
Bitrate:           5645 kbps
Codec:             DST64
================================================================================




Create a new paste based on this one


Comments: