[ create a new paste ] login | about

Link: http://codepad.org/hJaVJ5Ho    [ raw code | fork ]

Plain Text, pasted on Jul 8:
Exact Audio Copy V1.0 beta 6 from 9. April 2015

EAC extraction logfile from 13. November 2015, 2:36

Pattie LaBelle / Anthology [Disc 2]

Used drive  : Memorex 52MAXX 3252AJ1   Adapter: 1  ID: 1

Read mode               : Secure
Utilize accurate stream : Yes
Defeat audio cache      : Yes
Make use of C2 pointers : No

Read offset correction                      : 6
Overread into Lead-In and Lead-Out          : No
Fill up missing offset samples with silence : Yes
Delete leading and trailing silent blocks   : No
Null samples used in CRC calculations       : Yes
Used interface                              : Native Win32 interface for Win NT & 2000

Used output format              : User Defined Encoder
Selected bitrate                : 1024 kBit/s
Quality                         : High
Add ID3 tag                     : No
Command line compressor         : C:\Program Files (x86)\Exact Audio Copy\Flac\flac.exe
Additional command line options : %ishigh%-V -p -l 12 -b 4096 -m -e -r 8%ishigh%%islow%-5%islow% --replay-gain -T "ARTIST=%artist%" -T "ALBUM=%albumtitle%" -T "TITLE=%title%" -T "DATE=%year%" -T "TRACKNUMBER=%tracknr%" -T "GENRE=%genre%" -T "ENSEMBLE=%albuminterpret%" -T "ALBUMARTIST=%albumartist%" -T "COMPOSER=%albumcomposer%" -T "DISCNUMBER=%cdnumber%" -T "TOTALDISCS=%totalcds%" -T "TOTALTRACKS=%numtracks%" -T "SOURCEMEDIA=CD" -T "COMMENT=%comment%" %hascover%-T "PICTURE=%coverfile%"%hascover% %source%


TOC of the extracted CD

     Track |   Start  |  Length  | Start sector | End sector 
    ---------------------------------------------------------
        1  |  0:00.00 |  4:50.00 |         0    |    21749   
        2  |  4:50.00 |  4:47.53 |     21750    |    43327   
        3  |  9:37.53 |  5:23.27 |     43328    |    67579   
        4  | 15:01.05 |  4:34.34 |     67580    |    88163   
        5  | 19:35.39 |  4:24.46 |     88164    |   108009   
        6  | 24:00.10 |  3:49.17 |    108010    |   125201   
        7  | 27:49.27 |  4:15.68 |    125202    |   144394   
        8  | 32:05.20 |  4:16.01 |    144395    |   163595   
        9  | 36:21.21 |  4:03.71 |    163596    |   181891   
       10  | 40:25.17 |  4:33.21 |    181892    |   202387   
       11  | 44:58.38 |  4:32.46 |    202388    |   222833   
       12  | 49:31.09 |  4:16.70 |    222834    |   242103   
       13  | 53:48.04 |  8:13.33 |    242104    |   279111   
       14  | 62:01.37 |  4:00.36 |    279112    |   297147   
       15  | 66:01.73 |  4:52.11 |    297148    |   319058   


Range status and errors

Selected range

     Filename C:\Users\M@ce\Music\Archives\Rips\Pattie LaBelle - Anthology [Disc 2].wav

     Peak level 100.0 %
     Extraction speed 9.9 X
     Range quality 100.0 %
     Test CRC 54D9474C
     Copy CRC 54D9474C
     Copy OK

No errors occurred

 
AccurateRip summary
 
Track  1  cannot be verified as accurate (confidence 1)  [74DC6CD9], AccurateRip returned [AEE70AF3]  (AR v2)
Track  2  cannot be verified as accurate (confidence 1)  [20D429D5], AccurateRip returned [CF94E43B]  (AR v2)
Track  3  cannot be verified as accurate (confidence 1)  [8D8B060E], AccurateRip returned [94883F0F]  (AR v2)
Track  4  cannot be verified as accurate (confidence 1)  [A3816E9E], AccurateRip returned [6F3FB786]  (AR v2)
Track  5  cannot be verified as accurate (confidence 1)  [E8811D81], AccurateRip returned [47257F03]  (AR v2)
Track  6  cannot be verified as accurate (confidence 1)  [21A7A15E], AccurateRip returned [28C36685]  (AR v2)
Track  7  cannot be verified as accurate (confidence 1)  [AD410FF2], AccurateRip returned [B2470BD9]  (AR v2)
Track  8  cannot be verified as accurate (confidence 1)  [BC4D342D], AccurateRip returned [32B7BD67]  (AR v2)
Track  9  cannot be verified as accurate (confidence 1)  [7FCE0EBC], AccurateRip returned [3B98D6AF]  (AR v2)
Track 10  cannot be verified as accurate (confidence 1)  [28D2A728], AccurateRip returned [D79C4CBC]  (AR v2)
Track 11  cannot be verified as accurate (confidence 1)  [435839F5], AccurateRip returned [05AE67E7]  (AR v2)
Track 12  cannot be verified as accurate (confidence 1)  [85B38D40], AccurateRip returned [7CA056A2]  (AR v2)
Track 13  cannot be verified as accurate (confidence 1)  [D5B14193], AccurateRip returned [18FCDDA4]  (AR v2)
Track 14  cannot be verified as accurate (confidence 1)  [2F293548], AccurateRip returned [EAE04F52]  (AR v2)
Track 15  cannot be verified as accurate (confidence 1)  [11A12AC5], AccurateRip returned [44EB65B4]  (AR v2)
 
No tracks could be verified as accurate
You may have a different pressing from the one(s) in the database

End of status report

---- CUETools DB Plugin V2.1.6

[CTDB TOCID: F10E5tKzVKqrmXkGfifLDXL0jXQ-] disk not present in database
Submit result: F10E5tKzVKqrmXkGfifLDXL0jXQ- has been uploaded


==== Log checksum 1FCC5D0EBEA3DD7F75C657974C9CB8D1A3128F04294DE2FA4E7338AA7158401E ====



Create a new paste based on this one


Comments: