[ create a new paste ] login | about

Link: http://codepad.org/hLnKlmqm    [ raw code | fork ]

Plain Text, pasted on Nov 1:
foobar2000 1.4.6 / Dynamic Range Meter 1.1.1
log date: 2019-11-01 12:17:30

--------------------------------------------------------------------------------
Analyzed: Joan Baez / Live At Woodstock
--------------------------------------------------------------------------------

DR         Peak         RMS     Duration Track
--------------------------------------------------------------------------------
DR12      -2.07 dB   -18.27 dB      4:31 01-Oh Happy Day (Live At The Woodstock Music & Art Fair / 1969)
DR12      -4.08 dB   -20.69 dB      3:31 02-The Last Thing On My Mind (Live At The Woodstock Music & Art Fair / 1969)
DR13      -3.60 dB   -19.83 dB      3:48 03-I Shall Be Released (Live At The Woodstock Music & Art Fair / 1969)
DR17      -4.76 dB   -23.90 dB      3:01 04-He's Fine, And We're Fine, Too (Live At The Woodstock Music & Art Fair / 1969)
DR12      -4.87 dB   -20.03 dB      3:03 05-Joe Hill (Live At The Woodstock Music & Art Fair / 1969)
DR16      -5.24 dB   -25.96 dB      2:12 06-We Three Together Constitute The Struggle Mountain Resistance Band (Live At The Woodstock Music & Art Fair / 1969)
DR13      -3.75 dB   -19.92 dB      3:51 07-Sweet Sir Galahad (Live At The Woodstock Music & Art Fair / 1969)
DR12      -4.22 dB   -19.44 dB      3:54 08-Hickory Wind (Live At The Woodstock Music & Art Fair / 1969)
DR14      -4.25 dB   -20.96 dB      2:50 09-Drug Store Truck Drivin' Man (Live At The Woodstock Music & Art Fair / 1969)
DR13      -2.22 dB   -20.79 dB      4:35 10-One Day At A Time (Live At The Woodstock Music & Art Fair / 1969)
DR11      -3.56 dB   -18.12 dB      2:45 11-Take Me Back To The Sweet Sunny South (Live At The Woodstock Music & Art Fair / 1969)
DR13      -2.57 dB   -21.32 dB      4:16 12-Warm And Tender Love (Live At The Woodstock Music & Art Fair / 1969)
DR11      -5.15 dB   -20.51 dB      5:56 13-Swing Low, Sweet Chariot (Live At The Woodstock Music & Art Fair / 1969)
DR15      -6.10 dB   -23.76 dB      0:43 14-I Think It's Amazing That You People Are Still Awake (Live At The Woodstock Music & Art Fair / 1969)
DR11      -5.92 dB   -20.55 dB      4:45 15-We Shall Overcome (Live At The Woodstock Music & Art Fair / 1969)
--------------------------------------------------------------------------------

Number of tracks:  15
Official DR value: DR13

Samplerate:        96000 Hz
Channels:          2
Bits per sample:   24
Bitrate:           2547 kbps
Codec:             FLAC
================================================================================




Create a new paste based on this one


Comments: