[ create a new paste ] login | about

Link: http://codepad.org/hNx5xKf5    [ raw code | fork ]

Plain Text, pasted on May 29:
foobar2000 1.4.4 / Dynamic Range Meter 1.1.1
log date: 2019-05-28 19:29:56

--------------------------------------------------------------------------------
Analyzed: The Rolling Stones / Out Of Our Heads
--------------------------------------------------------------------------------

DR         Peak         RMS     Duration Track
--------------------------------------------------------------------------------
DR12      -2.64 dB   -16.79 dB      2:48 01-Mercy Mercy
DR13      -0.07 dB   -14.54 dB      2:27 02-Hitch Hike
DR11      -1.34 dB   -14.56 dB      3:44 03-The Last Time
DR12      -3.05 dB   -17.45 dB      2:27 04-That's How Strong My Love Is
DR11      -2.43 dB   -15.16 dB      2:01 05-Good Times
DR10      -3.40 dB   -15.93 dB      2:23 06-I'm All Right
DR13      -0.05 dB   -14.10 dB      3:47 07-Satisfaction
DR11      -1.39 dB   -14.79 dB      3:11 08-Cry To Me
DR12      -2.46 dB   -16.10 dB      3:11 09-The Under Assistant West Coast Promotion Man
DR11      -2.00 dB   -16.31 dB      2:18 10-Play With Fire
DR13      -2.67 dB   -16.98 dB      3:42 11-The Spider And The Fly
DR12      -2.92 dB   -16.29 dB      1:57 12-One More Try
--------------------------------------------------------------------------------

Number of tracks:  12
Official DR value: DR12

Samplerate:        44100 Hz
Channels:          2
Bits per sample:   16
Bitrate:           791 kbps
Codec:             FLAC
================================================================================




Create a new paste based on this one


Comments: