[ create a new paste ] login | about

Link: http://codepad.org/hPAecRZo    [ raw code | fork ]

Plain Text, pasted on Feb 17:
CD-QUALITY 16/44
----------------

foobar2000 1.6.4 / Dynamic Range Meter 1.1.1
log date: 2021-02-17 22:53:35

--------------------------------------------------------------------------------
Analyzed: Jeff Lynne's ELO / From Out Of Nowhere [2019 Columbia Records US 180g Vinyl]
--------------------------------------------------------------------------------

DR         Peak         RMS     Duration Track
--------------------------------------------------------------------------------
DR9       -0.87 dB   -11.84 dB      3:14 01-From Out Of Nowhere
DR10      -0.49 dB   -11.56 dB      3:14 02-Help Yourself
DR9       -0.26 dB   -10.99 dB      3:06 03-All My Love
DR10      -0.76 dB   -11.86 dB      3:29 04-Down Came The Rain
DR9       -0.65 dB   -11.12 dB      3:38 05-Losing You
DR10      -0.31 dB   -12.34 dB      3:29 06-One More Time
DR10      -0.72 dB   -11.56 dB      3:07 07-Sci-Fi Woman
DR9       -0.91 dB   -11.81 dB      3:09 08-Goin’ Out On Me
DR10      -0.79 dB   -11.89 dB      3:10 09-Time Of Our Life
DR9       -0.26 dB   -11.04 dB      3:08 10-Songbird
--------------------------------------------------------------------------------

Number of tracks:  10
Official DR value: DR9

Samplerate:        44100 Hz
Channels:          2
Bits per sample:   16
Bitrate:           811 kbps
Codec:             FLAC
================================================================================



HI-RES 24/96
------------

foobar2000 1.6.4 / Dynamic Range Meter 1.1.1
log date: 2021-02-17 22:53:43

--------------------------------------------------------------------------------
Analyzed: Jeff Lynne's ELO / From Out Of Nowhere [2019 Columbia Records US 180g Vinyl]
--------------------------------------------------------------------------------

DR         Peak         RMS     Duration Track
--------------------------------------------------------------------------------
DR9       -0.69 dB   -11.84 dB      3:14 01-From Out Of Nowhere
DR10      -0.40 dB   -11.55 dB      3:14 02-Help Yourself
DR9       -0.24 dB   -11.06 dB      3:06 03-All My Love
DR10      -0.41 dB   -11.85 dB      3:29 04-Down Came The Rain
DR9       -0.63 dB   -11.11 dB      3:38 05-Losing You
DR10      -0.34 dB   -12.33 dB      3:29 06-One More Time
DR10      -0.62 dB   -11.56 dB      3:07 07-Sci-Fi Woman
DR9       -0.91 dB   -11.81 dB      3:09 08-Goin’ Out On Me
DR10      -0.81 dB   -11.89 dB      3:10 09-Time Of Our Life
DR9       -0.24 dB   -11.04 dB      3:08 10-Songbird
--------------------------------------------------------------------------------

Number of tracks:  10
Official DR value: DR10

Samplerate:        96000 Hz
Channels:          2
Bits per sample:   24
Bitrate:           2800 kbps
Codec:             FLAC
================================================================================



HI-RES 24/192
-------------

foobar2000 1.6.4 / Dynamic Range Meter 1.1.1
log date: 2021-02-17 22:53:59

--------------------------------------------------------------------------------
Analyzed: Jeff Lynne's ELO / From Out Of Nowhere [2019 Columbia Records US 180g Vinyl]
--------------------------------------------------------------------------------

DR         Peak         RMS     Duration Track
--------------------------------------------------------------------------------
DR9       -0.69 dB   -11.84 dB      3:14 01-From Out Of Nowhere
DR10      -0.34 dB   -11.55 dB      3:14 02-Help Yourself
DR9       -0.20 dB   -11.06 dB      3:06 03-All My Love
DR10      -0.41 dB   -11.85 dB      3:29 04-Down Came The Rain
DR9       -0.63 dB   -11.11 dB      3:38 05-Losing You
DR10      -0.29 dB   -12.33 dB      3:29 06-One More Time
DR10      -0.60 dB   -11.56 dB      3:07 07-Sci-Fi Woman
DR9       -0.91 dB   -11.80 dB      3:09 08-Goin’ Out On Me
DR10      -0.80 dB   -11.89 dB      3:10 09-Time Of Our Life
DR9       -0.22 dB   -11.04 dB      3:08 10-Songbird
--------------------------------------------------------------------------------

Number of tracks:  10
Official DR value: DR10

Samplerate:        192000 Hz
Channels:          2
Bits per sample:   24
Bitrate:           5279 kbps
Codec:             FLAC
================================================================================




Create a new paste based on this one


Comments: