[ create a new paste ] login | about

Link: http://codepad.org/hSAzQame    [ raw code | fork ]

Plain Text, pasted on Mar 21:
foobar2000 1.2.2 / Dynamic Range Meter 1.1.1
log date: 2013-06-03 11:12:50

--------------------------------------------------------------------------------
Analyzed: Billy Joel / An Innocent Man (1998 Remaster)
--------------------------------------------------------------------------------

DR         Peak         RMS     Duration Track
--------------------------------------------------------------------------------
DR14      -1.35 dB   -17.24 dB      4:05 01-Easy Money
DR13      -2.41 dB   -19.19 dB      5:18 02-An Innocent Man
DR13      -3.07 dB   -18.05 dB      3:38 03-The Longest Time
DR13      -0.62 dB   -16.74 dB      4:18 04-This Night
DR13      -1.39 dB   -15.78 dB      3:51 05-Tell Her about it
DR13      -0.01 dB   -14.47 dB      3:17 06-Uptown Girl
DR12      -1.59 dB   -15.72 dB      3:47 07-Careless Talk
DR13      -0.23 dB   -14.98 dB      3:30 08-Christie Lee
DR13      -0.56 dB   -16.03 dB      3:56 09-Leave A Tender Moment Alone
DR14      -0.53 dB   -16.24 dB      4:41 10-Keeping The Faith
--------------------------------------------------------------------------------

Number of tracks:  10
Official DR value: DR13

Samplerate:        88200 Hz
Channels:          2
Bits per sample:   24
Bitrate:           2651 kbps
Codec:             FLAC
================================================================================




Create a new paste based on this one


Comments: