[ create a new paste ] login | about

Link: http://codepad.org/hYs0wR2l    [ raw code | fork ]

Plain Text, pasted on May 29:
foobar2000 1.4.4 / Dynamic Range Meter 1.1.1
log date: 2019-05-28 19:32:56

--------------------------------------------------------------------------------
Analyzed: The Rolling Stones / Their Satanic Majesties Request
--------------------------------------------------------------------------------

DR         Peak         RMS     Duration Track
--------------------------------------------------------------------------------
DR13      -2.10 dB   -18.23 dB      3:47 01-Sing This All Together
DR12      -0.18 dB   -14.83 dB      2:54 02-Citadel
DR13      -0.47 dB   -18.19 dB      3:16 03-In Another Land
DR11      -0.03 dB   -13.18 dB      3:08 04-2000 Man
DR14      -0.05 dB   -17.87 dB      8:37 05-Sing This All Together (See What Happens)
DR12      -0.06 dB   -15.75 dB      4:35 06-She's A Rainbow
DR14      -0.07 dB   -18.03 dB      4:26 07-The Lantern
DR12      -0.06 dB   -15.28 dB      5:09 08-Gomper
DR13      -1.99 dB   -18.82 dB      4:47 09-2000 Light Years From Home
DR12      -0.48 dB   -16.14 dB      3:38 10-On With The Show
--------------------------------------------------------------------------------

Number of tracks:  10
Official DR value: DR12

Samplerate:        96000 Hz
Channels:          2
Bits per sample:   24
Bitrate:           3010 kbps
Codec:             FLAC
================================================================================




Create a new paste based on this one


Comments: