[ create a new paste ] login | about

Link: http://codepad.org/hZkuHhIy    [ raw code | fork ]

Plain Text, pasted on Jul 4:
foobar2000 1.5 / Dynamic Range Meter 1.1.1
log date: 2020-07-04 05:30:05

--------------------------------------------------------------------------------
Analyzed: Paul Weller / On Sunset (Deluxe)
--------------------------------------------------------------------------------

DR         Peak         RMS     Duration Track
--------------------------------------------------------------------------------
DR9       -0.50 dB   -13.01 dB      7:37 01-Mirror Ball
DR8       -0.50 dB   -11.09 dB      3:06 02-Baptiste
DR8       -0.50 dB   -10.76 dB      3:56 03-Old Father Tyme
DR8       -0.50 dB   -10.43 dB      3:19 04-Village
DR7       -0.50 dB    -9.81 dB      6:55 05-More
DR7       -0.30 dB    -9.94 dB      6:35 06-On Sunset
DR9       -0.50 dB   -12.38 dB      3:55 07-Equanimity
DR6       -0.50 dB    -9.38 dB      3:57 08-Walkin'
DR7       -0.39 dB   -10.11 dB      4:18 09-Earth Beat
DR7       -0.50 dB    -9.94 dB      4:21 10-Rockets
DR9       -0.50 dB   -12.51 dB      5:36 11-4th Dimension
DR7       -0.50 dB    -8.68 dB      3:15 12-Ploughman
DR10      -0.50 dB   -14.11 dB      4:07 13-I’ll Think Of Something
DR9       -0.50 dB   -12.51 dB      3:59 14-On Sunset (Orchestral Mix)
DR7       -0.50 dB   -10.88 dB      3:06 15-Baptiste (Instrumental)
--------------------------------------------------------------------------------

Number of tracks:  15
Official DR value: DR8

Samplerate:        44100 Hz
Channels:          2
Bits per sample:   16
Bitrate:           763 kbps
Codec:             FLAC
================================================================================




Create a new paste based on this one


Comments: