[ create a new paste ] login | about

Link: http://codepad.org/heM9bBQM    [ raw code | fork ]

Plain Text, pasted on Oct 22:
foobar2000 1.6 / Dynamic Range Meter 1.1.1
log date: 2020-10-22 23:11:31

--------------------------------------------------------------------------------
Analyzed: Twisted Sister / Stay Hungry
--------------------------------------------------------------------------------

DR         Peak         RMS     Duration Track
--------------------------------------------------------------------------------
DR11      -0.16 dB   -12.86 dB      3:03 01-Stay Hungry
DR12      -0.35 dB   -14.31 dB      3:37 02-We're Not Gonna Take It
DR11      -0.81 dB   -14.05 dB      4:41 03-Burn In Hell
DR13      -0.06 dB   -15.18 dB      7:43 04-Horror Teria a) Captain Howdy - b) Street Justice
DR13      -0.13 dB   -15.39 dB      3:02 05-I Wanna Rock
DR13      -0.23 dB   -16.45 dB      3:47 06-The Price
DR12      -1.42 dB   -15.76 dB      4:25 07-Don't Let Me Down
DR14      -0.98 dB   -16.17 dB      3:28 08-The Beast
DR13      -0.91 dB   -15.54 dB      3:01 09-S.M.F.
--------------------------------------------------------------------------------

Number of tracks:  9
Official DR value: DR13

Samplerate:        44100 Hz
Channels:          2
Bits per sample:   16
Bitrate:           950 kbps
Codec:             FLAC
================================================================================




Create a new paste based on this one


Comments: