[ create a new paste ] login | about

Link: http://codepad.org/hj0FZgKq    [ raw code | fork ]

Plain Text, pasted on Mar 29:
Exact Audio Copy V1.0 beta 6 from 9. April 2015

EAC extraction logfile from 8. May 2015, 19:08

Emerson Lake & Palmer / Trilogy CD2 New Stereo

Used drive  : PLEXTOR BD-R  PX-B950SA   Adapter: 1  ID: 1

Read mode               : Secure
Utilize accurate stream : Yes
Defeat audio cache      : Yes
Make use of C2 pointers : No

Read offset correction                      : 6
Overread into Lead-In and Lead-Out          : No
Fill up missing offset samples with silence : Yes
Delete leading and trailing silent blocks   : No
Null samples used in CRC calculations       : Yes
Used interface                              : Native Win32 interface for Win NT & 2000

Used output format : Internal WAV Routines
Sample format      : 44.100 Hz; 16 Bit; Stereo


TOC of the extracted CD

     Track |   Start  |  Length  | Start sector | End sector 
    ---------------------------------------------------------
        1  |  0:00.00 |  4:16.52 |         0    |    19251   
        2  |  4:16.52 |  6:43.42 |     19252    |    49518   
        3  | 11:00.19 |  1:57.26 |     49519    |    58319   
        4  | 12:57.45 |  2:03.57 |     58320    |    67601   
        5  | 15:01.27 |  4:17.09 |     67602    |    86885   
        6  | 19:18.36 |  3:24.52 |     86886    |   102237   
        7  | 22:43.13 |  3:46.37 |    102238    |   119224   
        8  | 26:29.50 |  8:58.16 |    119225    |   159590   
        9  | 35:27.66 |  3:11.61 |    159591    |   173976   
       10  | 38:39.52 |  8:13.55 |    173977    |   211006   


Range status and errors

Selected range

     Filename C:\Emerson Lake & Palmer\1972 Trilogy (2CD + DVD-A Box Set Leadclass Limited 2015)\CD2\Emerson Lake & Palmer - Trilogy CD2 New Stereo.wav

     Peak level 97.0 %
     Extraction speed 7.1 X
     Range quality 100.0 %
     Test CRC 659E0C40
     Copy CRC 659E0C40
     Copy OK

No errors occurred

 
AccurateRip summary
 
Track  1  not present in database
Track  2  not present in database
Track  3  not present in database
Track  4  not present in database
Track  5  not present in database
Track  6  not present in database
Track  7  not present in database
Track  8  not present in database
Track  9  not present in database
Track 10  not present in database
 
None of the tracks are present in the AccurateRip database

End of status report

---- CUETools DB Plugin V2.1.6

[CTDB TOCID: TR68F5P2aykzB1xClajRTsbWyJk-] found
Submit result: TR68F5P2aykzB1xClajRTsbWyJk- has been confirmed
Track | CTDB Status
  1   | (13/13) Accurately ripped
  2   | (13/13) Accurately ripped
  3   | (13/13) Accurately ripped
  4   | (13/13) Accurately ripped
  5   | (13/13) Accurately ripped
  6   | (13/13) Accurately ripped
  7   | (13/13) Accurately ripped
  8   | (13/13) Accurately ripped
  9   | (13/13) Accurately ripped
 10   | (13/13) Accurately ripped


==== Log checksum 9DB0BD04016FD679E5A338B91BA928283EF335EC09D3C257BF5FECF50263DC8C ====



Create a new paste based on this one


Comments: