[ create a new paste ] login | about

Link: http://codepad.org/hkkCJzZ4    [ raw code | fork ]

Plain Text, pasted on Jan 2:
foobar2000 1.4.1 / Dynamic Range Meter 1.1.1
log date: 2019-01-02 10:56:04

--------------------------------------------------------------------------------
Analyzed: Atlanta Rhythm Section / Underdog
--------------------------------------------------------------------------------

DR         Peak         RMS     Duration Track
--------------------------------------------------------------------------------
DR13      -3.64 dB   -20.07 dB      3:28 01-Do It Or Die
DR14      -3.23 dB   -19.82 dB      3:55 02-Born Ready
DR15      -3.98 dB   -21.19 dB      7:12 03-I Hate The Blues Let's Go Get Stoned
DR14      -5.15 dB   -22.72 dB      3:58 04-Indigo Passion
DR14      -3.32 dB   -20.38 dB      5:20 05-While Time Is Left
DR14      -2.64 dB   -18.94 dB      5:34 06-It's Only Music
DR14      -3.60 dB   -18.98 dB      4:59 07-Spooky
DR12      -7.86 dB   -25.26 dB      3:17 08-My Song
--------------------------------------------------------------------------------

Number of tracks:  8
Official DR value: DR14

Samplerate:        96000 Hz
Channels:          2
Bits per sample:   24
Bitrate:           2565 kbps
Codec:             FLAC
================================================================================




Create a new paste based on this one


Comments: