[ create a new paste ] login | about

Link: http://codepad.org/hmsqtlx9    [ raw code | fork ]

Plain Text, pasted on May 8:
foobar2000 1.4.1 / Dynamic Range Meter 1.1.1
log date: 2019-05-07 23:08:35

--------------------------------------------------------------------------------
Analyzed: Miles Davis / Bags Groove
--------------------------------------------------------------------------------

DR         Peak         RMS     Duration Track
--------------------------------------------------------------------------------
DR14      -1.97 dB   -19.07 dB     11:17 01-Bags' Groove (Take 1)
DR14      -2.02 dB   -18.64 dB      9:24 02-Bags' Groove (Take 2)
DR13      -2.39 dB   -16.97 dB      5:02 03-Airegen
DR12      -3.64 dB   -17.37 dB      5:16 04-Oleo
DR12      -2.64 dB   -17.15 dB      5:47 05-But Not For Me (Take 2)
DR13      -3.66 dB   -18.27 dB      4:56 06-Doxy
DR12      -3.00 dB   -17.50 dB      4:39 07-But Not For Me (Take 1)
--------------------------------------------------------------------------------

Number of tracks:  7
Official DR value: DR13

Samplerate:        88200 Hz
Channels:          2
Bits per sample:   24
Bitrate:           2500 kbps
Codec:             FLAC
================================================================================




Create a new paste based on this one


Comments: