[ create a new paste ] login | about

Link: http://codepad.org/hnuaRMNy    [ raw code | fork ]

Plain Text, pasted on May 11:
Exact Audio Copy V1.0 beta 3 from 29. August 2011

EAC extraction logfile from 15. June 2012, 11:50

Tremeloes / Boxed CD4

Used drive  : HL-DT-STDVDRAM GSA-H60N   Adapter: 2  ID: 0

Read mode               : Secure
Utilize accurate stream : Yes
Defeat audio cache      : Yes
Make use of C2 pointers : No

Read offset correction                      : 667
Overread into Lead-In and Lead-Out          : No
Fill up missing offset samples with silence : Yes
Delete leading and trailing silent blocks   : No
Null samples used in CRC calculations       : Yes
Used interface                              : Native Win32 interface for Win NT & 2000

Used output format : Internal WAV Routines
Sample format      : 44.100 Hz; 16 Bit; Stereo


TOC of the extracted CD

     Track |   Start  |  Length  | Start sector | End sector 
    ---------------------------------------------------------
        1  |  0:00.00 |  2:36.67 |         0    |    11766   
        2  |  2:36.67 |  2:26.40 |     11767    |    22756   
        3  |  5:03.32 |  3:03.38 |     22757    |    36519   
        4  |  8:06.70 |  3:16.52 |     36520    |    51271   
        5  | 11:23.47 |  3:22.33 |     51272    |    66454   
        6  | 14:46.05 |  3:10.70 |     66455    |    80774   
        7  | 17:57.00 |  3:41.15 |     80775    |    97364   
        8  | 21:38.15 |  4:12.52 |     97365    |   116316   
        9  | 25:50.67 |  3:22.73 |    116317    |   131539   
       10  | 29:13.65 |  4:02.10 |    131540    |   149699   
       11  | 33:16.00 |  3:54.37 |    149700    |   167286   
       12  | 37:10.37 |  3:23.55 |    167287    |   182566   
       13  | 40:34.17 |  4:00.00 |    182567    |   200566   
       14  | 44:34.17 |  3:39.45 |    200567    |   217036   
       15  | 48:13.62 |  2:58.45 |    217037    |   230431   
       16  | 51:12.32 |  3:41.33 |    230432    |   247039   
       17  | 54:53.65 |  4:00.20 |    247040    |   265059   
       18  | 58:54.10 |  3:38.10 |    265060    |   281419   
       19  | 62:32.20 |  4:54.62 |    281420    |   303531   
       20  | 67:27.07 |  3:09.45 |    303532    |   317751   
       21  | 70:36.52 |  4:16.28 |    317752    |   336979   
       22  | 74:53.05 |  3:20.25 |    336980    |   352004   


Range status and errors

Selected range

     Filename C:\Documents and Settings\Admin\Рабочий стол\Lossless Galaxy Rip by ALLexxess\Tremeloes\2009 Boxed (4CD Set BR Music)\CD4\Tremeloes - Boxed CD4.wav

     Peak level 94.4 %
     Extraction speed 6.2 X
     Range quality 100.0 %
     Test CRC DF9D9EA7
     Copy CRC DF9D9EA7
     Copy OK

No errors occurred

 
AccurateRip summary
 
Track  1  not present in database
Track  2  not present in database
Track  3  not present in database
Track  4  not present in database
Track  5  not present in database
Track  6  not present in database
Track  7  not present in database
Track  8  not present in database
Track  9  not present in database
Track 10  not present in database
Track 11  not present in database
Track 12  not present in database
Track 13  not present in database
Track 14  not present in database
Track 15  not present in database
Track 16  not present in database
Track 17  not present in database
Track 18  not present in database
Track 19  not present in database
Track 20  not present in database
Track 21  not present in database
Track 22  not present in database
 
None of the tracks are present in the AccurateRip database

End of status report

==== Log checksum A0EE198187439325216FAF9EB79592F62A3CD61417CFE1436671401351840B01 ====



Create a new paste based on this one


Comments: