[ create a new paste ] login | about

Link: http://codepad.org/hoCh40C0    [ raw code | fork ]

Plain Text, pasted on Nov 13:
foobar2000 1.3.14 / Dynamic Range Meter 1.1.1
log date: 2017-01-21 17:25:27

--------------------------------------------------------------------------------
Analyzed: Derek and The Dominos / Layla & Other Assorted Love Songs (2016 SHM-SACD)
--------------------------------------------------------------------------------

DR         Peak         RMS     Duration Track
--------------------------------------------------------------------------------
DR11      -1.97 dB   -15.57 dB      3:07 01-I Looked Away
DR10      -3.29 dB   -15.58 dB      5:03 02-Bell Bottom Blues
DR11      -2.35 dB   -15.76 dB      6:23 03-Keep On Growing
DR13      -0.88 dB   -18.91 dB      4:59 04-Nobody Knows You (When You're Down And Out)
DR13      -1.50 dB   -17.86 dB      3:37 05-I Am Yours
DR11      -1.54 dB   -15.73 dB      6:37 06-Anyday
DR11      -1.05 dB   -16.45 dB      9:41 07-Key To The Higway
DR10      -1.60 dB   -14.68 dB      6:40 08-Tell The Truth
DR11      -1.04 dB   -15.88 dB      4:44 09-Why Does Love Got To Be So Sad?
DR12      -2.34 dB   -17.43 dB      6:55 10-Have You Ever Loved A Woman?
DR11      -2.06 dB   -15.65 dB      5:35 11-Little Wing
DR11      -2.02 dB   -15.67 dB      3:51 12-It's Too Late
DR10      -1.77 dB   -14.96 dB      7:06 13-Layla
DR12      -6.41 dB   -23.34 dB      2:52 14-Thorn Tree In The Garden
--------------------------------------------------------------------------------

Number of tracks:  14
Official DR value: DR11

Samplerate:        88200 Hz
Channels:          2
Bits per sample:   24
Bitrate:           2531 kbps
Codec:             FLAC
================================================================================




Create a new paste based on this one


Comments: