[ create a new paste ] login | about

Link: http://codepad.org/hpGIRxH1    [ raw code | fork ]

Plain Text, pasted on Mar 29:
[CUETools log; Date: 3/28/2016 7:25:15 PM; Version: 2.1.5]
[CTDB TOCID: XllLDldNSgAVNVUM5ejr6MFb0hk-] found.
Track | CTDB Status
  1   | (25/26) Accurately ripped
  2   | (25/26) Accurately ripped
  3   | (25/26) Accurately ripped
  4   | (25/26) Accurately ripped
  5   | (24/26) Accurately ripped
  6   | (24/26) Accurately ripped
  7   | (25/26) Accurately ripped
  8   | (25/26) Accurately ripped
  9   | (24/26) Accurately ripped
 10   | (25/26) Accurately ripped
 11   | (26/26) Accurately ripped
[AccurateRip ID: 000e8c13-007f75a2-9308770b] found.
Track   [  CRC   |   V2   ] Status
 01     [bd6a02f8|6cc961ba] (32+29/63) Accurately ripped
 02     [6c73f400|8381a63a] (32+29/63) Accurately ripped
 03     [5a378165|4b0f116d] (32+29/63) Accurately ripped
 04     [9bd3e502|fe3bd6f7] (32+29/63) Accurately ripped
 05     [ddf83c54|b81e0476] (32+29/63) Accurately ripped
 06     [6cc08e1a|902c077a] (32+29/63) Accurately ripped
 07     [2a2cd3b1|65d0b120] (32+29/63) Accurately ripped
 08     [f9e8f2c0|8a42f57b] (32+29/63) Accurately ripped
 09     [20636fcb|da0f1f28] (32+29/63) Accurately ripped
 10     [bc007f3b|982e9cdf] (32+29/63) Accurately ripped
 11     [b4684674|f4463e25] (32+29/63) Accurately ripped
Offsetted by -30:
 01     [cba4f7b2] (02/63) Accurately ripped
 02     [2d5acbbc] (02/63) Accurately ripped
 03     [05eb29e2] (02/63) Accurately ripped
 04     [9cb1dcc7] (02/63) Accurately ripped
 05     [14f2ea38] (02/63) Accurately ripped
 06     [99ebda7c] (02/63) Accurately ripped
 07     [a2ca46a3] (02/63) Accurately ripped
 08     [079be561] (02/63) Accurately ripped
 09     [28d73a3d] (02/63) Accurately ripped
 10     [740917e2] (02/63) Accurately ripped
 11     [e6e0a4f9] (02/63) Accurately ripped
Offsetted by -18:
 01     [9ea803ea] (00/63) No match
 02     [38b2a378] (00/63) No match (V2 was not tested)
 03     [979d111a] (00/63) No match
 04     [078733cc] (00/63) No match
 05     [07adb4d5] (00/63) No match
 06     [42ab1756] (00/63) No match
 07     [09b95ed7] (00/63) No match
 08     [081ace64] (00/63) No match
 09     [34c787a9] (00/63) No match
 10     [b5080e28] (00/63) No match
 11     [392fe57b] (00/63) No match (V2 was not tested)

Track Peak [ CRC32  ] [W/O NULL] [  LOG   ]
 --  100.0 [52C0E24C] [FEF168B9]  W/O NULL 
 01  100.0 [79EA9DE7] [561BCD3B]           
 02   69.4 [C0E2953E] [3D15F2DB]           
 03  100.0 [7B09382B] [D9CBF303]           
 04  100.0 [FEDC422B] [F03AE0C5]           
 05  100.0 [990B94D0] [116B5846]           
 06  100.0 [80D6B990] [EE55CC24]           
 07  100.0 [9533E41B] [32C2EB0B]           
 08  100.0 [63322137] [B79CED45]           
 09   90.6 [727C61E7] [B3FBE5D2]           
 10   95.8 [77B8E89E] [CB5EA776]           
 11  100.0 [FA186925] [067324C2]           



Create a new paste based on this one


Comments: