[ create a new paste ] login | about

Link: http://codepad.org/i56OyczF    [ raw code | fork ]

Plain Text, pasted on Jul 29:
1
2
3
4
5
6
7
8
9
10
11
12
13
14
15
16
17
18
19
20
21
22
23
24
25
26
27
28
29
30
31
32
33
34
35
36
37
38
39
40
41
42
43
44
45
46
47
48
49
50
51
52
53
54
55
56
57
58
59
60
61
62
63
64
65
66
67
68
69
70
71
72
73
74
75
76
77
78
79
80
81
82
83
84
85
86
87
88
89
90
91
92
93
94
95
96
97
98
99
100
101
102
103
104
105
106
107
108
109
110
111
112
113
114
115
116
117
118
119
120
121
122
123
124
125
126
127
128
129
130
131
132
133
134
135
136
137
138
139
140
141
142
143
144
145
146
147
148
149
150
151
152
153
154
155
156
157
158
159
160
161
162
163
164
165
166
167
168
169
170
171
172
173
174
175
176
177
178
179
180
181
182
183
184
185
186
187
188
189
190
191
192
193
194
195
196
197
198
199
200
201
202
203
204
205
206
207
208
209
210
211
212
213
214
215
216
217
218
219
220
221
222
223
224
225
226
227
228
229
230
231
232
233
234
235
236
237
238
239
240
241
242
243
244
245
246
247
248
249
250
251
252
253
254
255
256
257
258
259
260
261
262
263
264
265
266
267
268
269
270
271
272
273
274
275
276
277
278
279
280
281
282
283
284
285
286
287
288
289
290
291
292
293
294
295
296
297
298
299
300
301
302
303
304
305
306
307
308
309
310
311
312
313
314
315
316
317
318
319
320
321
322
323
324
325
326
327
328
329
330
331
332
333
334
335
336
337
338
339
340
341
342
343
344
345
346
347
348
349
350
351
352
353
354
355
356
357
358
359
360
361
362
363
364
365
366
367
368
369
370
371
372
373
374
375
376
377
378
379
380
381
382
383
384
385
386
387
388
389
390
391
392
393
394
395
396
397
398
399
400
401
402
403
404
405
406
407
408
409
410
411
412
413
414
415
416
417
418
419
420
421
422
423
424
425
426
427
428
429
430
431
432
433
434
435
436
437
438
439
440
441
442
443
444
445
446
447
448
449
450
451
452
453
454
455
456
457
458
459
460
461
462
463
464
465
466
467
468
469
470
471
472
473
474
475
476
477
478
479
480
481
482
483
484
485
486
487
488
489
490
491
492
493
494
495
496
497
498
499
500
501
502
503
504
505
506
507
508
509
510
511
512
513
514
515
516
517
518
519
520
521
522
523
524
525
526
527
528
529
530
531
532
533
534
535
536
537
538
539
540
541
542
543
544
545
546
547
548
549
550
551
552
553
554
555
556
557
558
559
560
561
562
563
564
565
566
567
568
569
570
571
572
573
574
575
576
577
578
579
580
581
582
583
584
585
586
587
588
589
590
591
592
593
594
595
596
597
598
599
600
601
602
603
604
605
606
607
608
609
610
611
612
613
614
615
616
617
618
619
620
621
622
Disc Title:     TANGERINE DREAM RICOCHET
Disc Size:      31,591,430,144 bytes
Protection:     AACS(v0)
BD-Java:        No
BDInfo:         0.5.8.7 (compatible layout created by DVDFab 11.0.1.0)

Notes:          

BDINFO HOME:
  Cinema Squid (original standalone tool)
    http://www.cinemasquid.com/blu-ray/tools/bdinfo
  DVDFab
    http://www.dvdfab.cn/bdinfo.htm

INCLUDES FORUMS REPORT FOR:
  AVS Forum Blu-ray Audio and Video Specifications Thread
    http://www.avsforum.com/avs-vb/showthread.php?t=1155731

WARNING: Report is incomplete because: Scan has not been run.

********************
PLAYLIST: 00002.MPLS  
********************

<--- BEGIN FORUMS PASTE --->
[code]
                                                                                                                  Total   Video                                             
Title                                                           Codec   Length   Movie Size      Disc Size       Bitrate Bitrate Main Audio Track                          Secondary Audio Track
-----                                                           ------  -------  --------------  --------------  ------- ------- ------------------                        ---------------------
00002.MPLS                                                      AVC     0:44:46  8,196,902,400   31,591,430,144  24.40   0.00    LPCM 2.0                                  LPCM 2.0LPCM 2.0
[/code]

[code]

DISC INFO:

Disc Title:     TANGERINE DREAM RICOCHET
Disc Size:      31,591,430,144 bytes
Protection:     AACS(v0)
BD-Java:        No
BDInfo:         0.5.8.7 (compatible layout created by DVDFab 11.0.1.0)

PLAYLIST REPORT:

Name:                   00002.MPLS  
Length:                 0:44:46.975 (h:m:s.ms)
Size:                   8,196,902,400 bytes
Total Bitrate:          24.40 Mbps

VIDEO:

Codec                   Bitrate             Description     
-----                   -------             -----------     
MPEG-4 AVC Video        0 kbps              1080p / 23.976 fps / 16:9 / High Profile 4.1 / 

AUDIO:

Codec                           Language        Bitrate         Description     
-----                           --------        -------         -----------     
LPCM Audio                      English         1536 kbps       2.0 / 48 kHz / 1536 kbps / 16-bit
LPCM Audio                      English         1536 kbps       2.0 / 48 kHz / 1536 kbps / 16-bit
LPCM Audio                      English         1536 kbps       2.0 / 48 kHz / 1536 kbps / 16-bit

SUBTITLES:

Codec                           Language        Bitrate         Description     
-----                           --------        -------         -----------     
Presentation Graphics           English         0 kbps                          

FILES:

Name            Time In         Length          Size            Total Bitrate   
----            -------         ------          ----            -------------   
00007.M2TS      0:00:00.000     0:44:45.974     8,196,877,824   24,413 kbps     
00002.M2TS      0:44:45.974     0:00:01.000     24,576          196 kbps        

CHAPTERS:

Number          Time In         Length          Avg Video Rate  Max 1-Sec Rate  Max 1-Sec Time  Max 5-Sec Rate  Max 5-Sec Time  Max 10Sec Rate  Max 10Sec Time  Avg Frame Size  Max Frame Size  Max Frame Time  
------          -------         ------          --------------  --------------  --------------  --------------  --------------  --------------  --------------  --------------  --------------  --------------  
1               0:00:00.000     0:44:46.975     0 kbps          0 kbps          00:00:00.000    0 kbps          00:00:00.000    0 kbps          00:00:00.000    0 bytes         0 bytes         00:00:00.000    

STREAM DIAGNOSTICS:

File            PID             Type            Codec           Language                Seconds                 Bitrate                 Bytes           Packets         
----            ---             ----            -----           --------                --------------          --------------          -------------   -----           
00007.M2TS      4113 (0x1011)   0x1B            AVC                                     0.00                    0                       0               0               
00007.M2TS      4352 (0x1100)   0x80            LPCM            eng (English)           0.00                    0                       0               0               
00007.M2TS      4353 (0x1101)   0x80            LPCM            eng (English)           0.00                    0                       0               0               
00007.M2TS      4354 (0x1102)   0x80            LPCM            eng (English)           0.00                    0                       0               0               
00007.M2TS      4608 (0x1200)   0x90            PGS             eng (English)           0.00                    0                       0               0               
00002.M2TS      4113 (0x1011)   0x1B            AVC                                     0.00                    0                       0               0               

[/code]
<---- END FORUMS PASTE ---->

QUICK SUMMARY:

Disc Title: TANGERINE DREAM RICOCHET
Disc Size: 31,591,430,144 bytes
Protection: AACS(v0)
BD-Java: No
Playlist: 00002.MPLS  
Size: 8,196,902,400 bytes
Length: 0:44:46.975
Total Bitrate: 24.40 Mbps
Video: MPEG-4 AVC Video / 0 kbps / 1080p / 23.976 fps / 16:9 / High Profile 4.1 / 
Audio: English / LPCM Audio / 2.0 / 48 kHz / 1536 kbps / 16-bit
Audio: English / LPCM Audio / 2.0 / 48 kHz / 1536 kbps / 16-bit
Audio: English / LPCM Audio / 2.0 / 48 kHz / 1536 kbps / 16-bit
Subtitle: English / 0 kbps  


********************
PLAYLIST: 00004.MPLS  
********************

<--- BEGIN FORUMS PASTE --->
[code]
                                                                                                                  Total   Video                                             
Title                                                           Codec   Length   Movie Size      Disc Size       Bitrate Bitrate Main Audio Track                          Secondary Audio Track
-----                                                           ------  -------  --------------  --------------  ------- ------- ------------------                        ---------------------
00004.MPLS                                                      AVC     1:20:06  12,001,935,360  31,591,430,144  19.98   0.00    LPCM 2.0                                  
[/code]

[code]

DISC INFO:

Disc Title:     TANGERINE DREAM RICOCHET
Disc Size:      31,591,430,144 bytes
Protection:     AACS(v0)
BD-Java:        No
BDInfo:         0.5.8.7 (compatible layout created by DVDFab 11.0.1.0)

PLAYLIST REPORT:

Name:                   00004.MPLS  
Length:                 1:20:06.467 (h:m:s.ms)
Size:                   12,001,935,360 bytes
Total Bitrate:          19.98 Mbps

VIDEO:

Codec                   Bitrate             Description     
-----                   -------             -----------     
MPEG-4 AVC Video        0 kbps              1080p / 23.976 fps / 16:9 / High Profile 4.1 / 

AUDIO:

Codec                           Language        Bitrate         Description     
-----                           --------        -------         -----------     
LPCM Audio                      English         1536 kbps       2.0 / 48 kHz / 1536 kbps / 16-bit

FILES:

Name            Time In         Length          Size            Total Bitrate   
----            -------         ------          ----            -------------   
00005.M2TS      0:00:00.000     0:02:00.161     300,048,384     19,976 kbps     
00005.M2TS      0:02:00.161     0:02:00.161     300,048,384     19,976 kbps     
00005.M2TS      0:04:00.323     0:02:00.161     300,048,384     19,976 kbps     
00005.M2TS      0:06:00.485     0:02:00.161     300,048,384     19,976 kbps     
00005.M2TS      0:08:00.646     0:02:00.161     300,048,384     19,976 kbps     
00005.M2TS      0:10:00.808     0:02:00.161     300,048,384     19,976 kbps     
00005.M2TS      0:12:00.970     0:02:00.161     300,048,384     19,976 kbps     
00005.M2TS      0:14:01.131     0:02:00.161     300,048,384     19,976 kbps     
00005.M2TS      0:16:01.293     0:02:00.161     300,048,384     19,976 kbps     
00005.M2TS      0:18:01.455     0:02:00.161     300,048,384     19,976 kbps     
00005.M2TS      0:20:01.616     0:02:00.161     300,048,384     19,976 kbps     
00005.M2TS      0:22:01.778     0:02:00.161     300,048,384     19,976 kbps     
00005.M2TS      0:24:01.940     0:02:00.161     300,048,384     19,976 kbps     
00005.M2TS      0:26:02.101     0:02:00.161     300,048,384     19,976 kbps     
00005.M2TS      0:28:02.263     0:02:00.161     300,048,384     19,976 kbps     
00005.M2TS      0:30:02.425     0:02:00.161     300,048,384     19,976 kbps     
00005.M2TS      0:32:02.587     0:02:00.161     300,048,384     19,976 kbps     
00005.M2TS      0:34:02.748     0:02:00.161     300,048,384     19,976 kbps     
00005.M2TS      0:36:02.910     0:02:00.161     300,048,384     19,976 kbps     
00005.M2TS      0:38:03.072     0:02:00.161     300,048,384     19,976 kbps     
00005.M2TS      0:40:03.233     0:02:00.161     300,048,384     19,976 kbps     
00005.M2TS      0:42:03.395     0:02:00.161     300,048,384     19,976 kbps     
00005.M2TS      0:44:03.557     0:02:00.161     300,048,384     19,976 kbps     
00005.M2TS      0:46:03.718     0:02:00.161     300,048,384     19,976 kbps     
00005.M2TS      0:48:03.880     0:02:00.161     300,048,384     19,976 kbps     
00005.M2TS      0:50:04.042     0:02:00.161     300,048,384     19,976 kbps     
00005.M2TS      0:52:04.203     0:02:00.161     300,048,384     19,976 kbps     
00005.M2TS      0:54:04.365     0:02:00.161     300,048,384     19,976 kbps     
00005.M2TS      0:56:04.527     0:02:00.161     300,048,384     19,976 kbps     
00005.M2TS      0:58:04.688     0:02:00.161     300,048,384     19,976 kbps     
00005.M2TS      1:00:04.850     0:02:00.161     300,048,384     19,976 kbps     
00005.M2TS      1:02:05.012     0:02:00.161     300,048,384     19,976 kbps     
00005.M2TS      1:04:05.174     0:02:00.161     300,048,384     19,976 kbps     
00005.M2TS      1:06:05.335     0:02:00.161     300,048,384     19,976 kbps     
00005.M2TS      1:08:05.497     0:02:00.161     300,048,384     19,976 kbps     
00005.M2TS      1:10:05.659     0:02:00.161     300,048,384     19,976 kbps     
00005.M2TS      1:12:05.820     0:02:00.161     300,048,384     19,976 kbps     
00005.M2TS      1:14:05.982     0:02:00.161     300,048,384     19,976 kbps     
00005.M2TS      1:16:06.144     0:02:00.161     300,048,384     19,976 kbps     
00005.M2TS      1:18:06.305     0:02:00.161     300,048,384     19,976 kbps     

CHAPTERS:

Number          Time In         Length          Avg Video Rate  Max 1-Sec Rate  Max 1-Sec Time  Max 5-Sec Rate  Max 5-Sec Time  Max 10Sec Rate  Max 10Sec Time  Avg Frame Size  Max Frame Size  Max Frame Time  
------          -------         ------          --------------  --------------  --------------  --------------  --------------  --------------  --------------  --------------  --------------  --------------  
1               0:00:00.000     1:20:06.467     0 kbps          0 kbps          00:00:00.000    0 kbps          00:00:00.000    0 kbps          00:00:00.000    0 bytes         0 bytes         00:00:00.000    

STREAM DIAGNOSTICS:

File            PID             Type            Codec           Language                Seconds                 Bitrate                 Bytes           Packets         
----            ---             ----            -----           --------                --------------          --------------          -------------   -----           
00005.M2TS      4113 (0x1011)   0x1B            AVC                                     0.00                    0                       0               0               
00005.M2TS      4352 (0x1100)   0x80            LPCM            eng (English)           0.00                    0                       0               0               

[/code]
<---- END FORUMS PASTE ---->

QUICK SUMMARY:

Disc Title: TANGERINE DREAM RICOCHET
Disc Size: 31,591,430,144 bytes
Protection: AACS(v0)
BD-Java: No
Playlist: 00004.MPLS  
Size: 12,001,935,360 bytes
Length: 1:20:06.467
Total Bitrate: 19.98 Mbps
Video: MPEG-4 AVC Video / 0 kbps / 1080p / 23.976 fps / 16:9 / High Profile 4.1 / 
Audio: English / LPCM Audio / 2.0 / 48 kHz / 1536 kbps / 16-bit


********************
PLAYLIST: 00000.MPLS  
********************

<--- BEGIN FORUMS PASTE --->
[code]
                                                                                                                  Total   Video                                             
Title                                                           Codec   Length   Movie Size      Disc Size       Bitrate Bitrate Main Audio Track                          Secondary Audio Track
-----                                                           ------  -------  --------------  --------------  ------- ------- ------------------                        ---------------------
00000.MPLS                                                      AVC     0:38:32  12,085,014,528  31,591,430,144  41.82   0.00    DTS-HD Master 5.1                         LPCM 5.1LPCM 5.1
[/code]

[code]

DISC INFO:

Disc Title:     TANGERINE DREAM RICOCHET
Disc Size:      31,591,430,144 bytes
Protection:     AACS(v0)
BD-Java:        No
BDInfo:         0.5.8.7 (compatible layout created by DVDFab 11.0.1.0)

PLAYLIST REPORT:

Name:                   00000.MPLS  
Length:                 0:38:32.059 (h:m:s.ms)
Size:                   12,085,014,528 bytes
Total Bitrate:          41.82 Mbps

VIDEO:

Codec                   Bitrate             Description     
-----                   -------             -----------     
MPEG-4 AVC Video        0 kbps              1080p / 23.976 fps / 16:9 / High Profile 4.1 / 

AUDIO:

Codec                           Language        Bitrate         Description     
-----                           --------        -------         -----------     
DTS-HD Master Audio             English         0 kbps          5.1 / 96 kHz / 24-bit (DTS Core: 5.1 / 48 kHz / 1509 kbps / 24-bit)
LPCM Audio                      English         13824 kbps      5.1 / 96 kHz / 13824 kbps / 24-bit
LPCM Audio                      English         4608 kbps       2.0 / 96 kHz / 4608 kbps / 24-bit

FILES:

Name            Time In         Length          Size            Total Bitrate   
----            -------         ------          ----            -------------   
00000.M2TS      0:00:00.000     0:38:31.058     12,084,989,952  41,833 kbps     
00002.M2TS      0:38:31.058     0:00:01.000     24,576          196 kbps        

CHAPTERS:

Number          Time In         Length          Avg Video Rate  Max 1-Sec Rate  Max 1-Sec Time  Max 5-Sec Rate  Max 5-Sec Time  Max 10Sec Rate  Max 10Sec Time  Avg Frame Size  Max Frame Size  Max Frame Time  
------          -------         ------          --------------  --------------  --------------  --------------  --------------  --------------  --------------  --------------  --------------  --------------  
1               0:00:00.000     0:17:09.528     0 kbps          0 kbps          00:00:00.000    0 kbps          00:00:00.000    0 kbps          00:00:00.000    0 bytes         0 bytes         00:00:00.000    
2               0:17:09.528     0:21:22.531     0 kbps          0 kbps          00:00:00.000    0 kbps          00:00:00.000    0 kbps          00:00:00.000    0 bytes         0 bytes         00:00:00.000    

STREAM DIAGNOSTICS:

File            PID             Type            Codec           Language                Seconds                 Bitrate                 Bytes           Packets         
----            ---             ----            -----           --------                --------------          --------------          -------------   -----           
00000.M2TS      4113 (0x1011)   0x1B            AVC                                     0.00                    0                       0               0               
00000.M2TS      4352 (0x1100)   0x86            DTS-HD MA       eng (English)           0.00                    0                       0               0               
00000.M2TS      4353 (0x1101)   0x80            LPCM            eng (English)           0.00                    0                       0               0               
00000.M2TS      4354 (0x1102)   0x80            LPCM            eng (English)           0.00                    0                       0               0               
00002.M2TS      4113 (0x1011)   0x1B            AVC                                     0.00                    0                       0               0               

[/code]
<---- END FORUMS PASTE ---->

QUICK SUMMARY:

Disc Title: TANGERINE DREAM RICOCHET
Disc Size: 31,591,430,144 bytes
Protection: AACS(v0)
BD-Java: No
Playlist: 00000.MPLS  
Size: 12,085,014,528 bytes
Length: 0:38:32.059
Total Bitrate: 41.82 Mbps
Video: MPEG-4 AVC Video / 0 kbps / 1080p / 23.976 fps / 16:9 / High Profile 4.1 / 
Audio: English / DTS-HD Master Audio / 5.1 / 96 kHz / 24-bit (DTS Core: 5.1 / 48 kHz / 1509 kbps / 24-bit)
Audio: English / LPCM Audio / 5.1 / 96 kHz / 13824 kbps / 24-bit
Audio: English / LPCM Audio / 2.0 / 96 kHz / 4608 kbps / 24-bit


********************
PLAYLIST: 00001.MPLS  
********************

<--- BEGIN FORUMS PASTE --->
[code]
                                                                                                                  Total   Video                                             
Title                                                           Codec   Length   Movie Size      Disc Size       Bitrate Bitrate Main Audio Track                          Secondary Audio Track
-----                                                           ------  -------  --------------  --------------  ------- ------- ------------------                        ---------------------
00001.MPLS                                                      AVC     0:38:08  5,893,742,592   31,591,430,144  20.60   0.00    LPCM 2.0                                  
[/code]

[code]

DISC INFO:

Disc Title:     TANGERINE DREAM RICOCHET
Disc Size:      31,591,430,144 bytes
Protection:     AACS(v0)
BD-Java:        No
BDInfo:         0.5.8.7 (compatible layout created by DVDFab 11.0.1.0)

PLAYLIST REPORT:

Name:                   00001.MPLS  
Length:                 0:38:08.703 (h:m:s.ms)
Size:                   5,893,742,592 bytes
Total Bitrate:          20.60 Mbps

VIDEO:

Codec                   Bitrate             Description     
-----                   -------             -----------     
MPEG-4 AVC Video        0 kbps              1080p / 23.976 fps / 16:9 / High Profile 4.1 / 

AUDIO:

Codec                           Language        Bitrate         Description     
-----                           --------        -------         -----------     
LPCM Audio                      English         4608 kbps       2.0 / 96 kHz / 4608 kbps / 24-bit

FILES:

Name            Time In         Length          Size            Total Bitrate   
----            -------         ------          ----            -------------   
00001.M2TS      0:00:00.000     0:38:07.702     5,893,718,016   20,610 kbps     
00002.M2TS      0:38:07.702     0:00:01.000     24,576          196 kbps        

CHAPTERS:

Number          Time In         Length          Avg Video Rate  Max 1-Sec Rate  Max 1-Sec Time  Max 5-Sec Rate  Max 5-Sec Time  Max 10Sec Rate  Max 10Sec Time  Avg Frame Size  Max Frame Size  Max Frame Time  
------          -------         ------          --------------  --------------  --------------  --------------  --------------  --------------  --------------  --------------  --------------  --------------  
1               0:00:00.000     0:17:02.938     0 kbps          0 kbps          00:00:00.000    0 kbps          00:00:00.000    0 kbps          00:00:00.000    0 bytes         0 bytes         00:00:00.000    
2               0:17:02.938     0:21:05.764     0 kbps          0 kbps          00:00:00.000    0 kbps          00:00:00.000    0 kbps          00:00:00.000    0 bytes         0 bytes         00:00:00.000    

STREAM DIAGNOSTICS:

File            PID             Type            Codec           Language                Seconds                 Bitrate                 Bytes           Packets         
----            ---             ----            -----           --------                --------------          --------------          -------------   -----           
00001.M2TS      4113 (0x1011)   0x1B            AVC                                     0.00                    0                       0               0               
00001.M2TS      4352 (0x1100)   0x80            LPCM            eng (English)           0.00                    0                       0               0               
00002.M2TS      4113 (0x1011)   0x1B            AVC                                     0.00                    0                       0               0               

[/code]
<---- END FORUMS PASTE ---->

QUICK SUMMARY:

Disc Title: TANGERINE DREAM RICOCHET
Disc Size: 31,591,430,144 bytes
Protection: AACS(v0)
BD-Java: No
Playlist: 00001.MPLS  
Size: 5,893,742,592 bytes
Length: 0:38:08.703
Total Bitrate: 20.60 Mbps
Video: MPEG-4 AVC Video / 0 kbps / 1080p / 23.976 fps / 16:9 / High Profile 4.1 / 
Audio: English / LPCM Audio / 2.0 / 96 kHz / 4608 kbps / 24-bit


********************
PLAYLIST: 00003.MPLS  
********************

<--- BEGIN FORUMS PASTE --->
[code]
                                                                                                                  Total   Video                                             
Title                                                           Codec   Length   Movie Size      Disc Size       Bitrate Bitrate Main Audio Track                          Secondary Audio Track
-----                                                           ------  -------  --------------  --------------  ------- ------- ------------------                        ---------------------
00003.MPLS                                                      AVC     0:27:41  5,069,630,208   31,591,430,144  24.41   0.00    LPCM 2.0                                  LPCM 2.0LPCM 2.0
[/code]

[code]

DISC INFO:

Disc Title:     TANGERINE DREAM RICOCHET
Disc Size:      31,591,430,144 bytes
Protection:     AACS(v0)
BD-Java:        No
BDInfo:         0.5.8.7 (compatible layout created by DVDFab 11.0.1.0)

PLAYLIST REPORT:

Name:                   00003.MPLS  
Length:                 0:27:41.660 (h:m:s.ms)
Size:                   5,069,630,208 bytes
Total Bitrate:          24.41 Mbps

VIDEO:

Codec                   Bitrate             Description     
-----                   -------             -----------     
MPEG-4 AVC Video        0 kbps              1080p / 23.976 fps / 16:9 / High Profile 4.1 / 

AUDIO:

Codec                           Language        Bitrate         Description     
-----                           --------        -------         -----------     
LPCM Audio                      English         1536 kbps       2.0 / 48 kHz / 1536 kbps / 16-bit
LPCM Audio                      English         1536 kbps       2.0 / 48 kHz / 1536 kbps / 16-bit
LPCM Audio                      English         1536 kbps       2.0 / 48 kHz / 1536 kbps / 16-bit

FILES:

Name            Time In         Length          Size            Total Bitrate   
----            -------         ------          ----            -------------   
00006.M2TS      0:00:00.000     0:27:40.659     5,069,605,632   24,422 kbps     
00002.M2TS      0:27:40.659     0:00:01.000     24,576          196 kbps        

CHAPTERS:

Number          Time In         Length          Avg Video Rate  Max 1-Sec Rate  Max 1-Sec Time  Max 5-Sec Rate  Max 5-Sec Time  Max 10Sec Rate  Max 10Sec Time  Avg Frame Size  Max Frame Size  Max Frame Time  
------          -------         ------          --------------  --------------  --------------  --------------  --------------  --------------  --------------  --------------  --------------  --------------  
1               0:00:00.000     0:27:41.660     0 kbps          0 kbps          00:00:00.000    0 kbps          00:00:00.000    0 kbps          00:00:00.000    0 bytes         0 bytes         00:00:00.000    

STREAM DIAGNOSTICS:

File            PID             Type            Codec           Language                Seconds                 Bitrate                 Bytes           Packets         
----            ---             ----            -----           --------                --------------          --------------          -------------   -----           
00006.M2TS      4113 (0x1011)   0x1B            AVC                                     0.00                    0                       0               0               
00006.M2TS      4352 (0x1100)   0x80            LPCM            eng (English)           0.00                    0                       0               0               
00006.M2TS      4353 (0x1101)   0x80            LPCM            eng (English)           0.00                    0                       0               0               
00006.M2TS      4354 (0x1102)   0x80            LPCM            eng (English)           0.00                    0                       0               0               
00002.M2TS      4113 (0x1011)   0x1B            AVC                                     0.00                    0                       0               0               

[/code]
<---- END FORUMS PASTE ---->

QUICK SUMMARY:

Disc Title: TANGERINE DREAM RICOCHET
Disc Size: 31,591,430,144 bytes
Protection: AACS(v0)
BD-Java: No
Playlist: 00003.MPLS  
Size: 5,069,630,208 bytes
Length: 0:27:41.660
Total Bitrate: 24.41 Mbps
Video: MPEG-4 AVC Video / 0 kbps / 1080p / 23.976 fps / 16:9 / High Profile 4.1 / 
Audio: English / LPCM Audio / 2.0 / 48 kHz / 1536 kbps / 16-bit
Audio: English / LPCM Audio / 2.0 / 48 kHz / 1536 kbps / 16-bit
Audio: English / LPCM Audio / 2.0 / 48 kHz / 1536 kbps / 16-bit


********************
PLAYLIST: 00006.MPLS  
********************

<--- BEGIN FORUMS PASTE --->
[code]
                                                                                                                  Total   Video                                             
Title                                                           Codec   Length   Movie Size      Disc Size       Bitrate Bitrate Main Audio Track                          Secondary Audio Track
-----                                                           ------  -------  --------------  --------------  ------- ------- ------------------                        ---------------------
00006.MPLS                                                      AVC     0:00:11  731,136         31,591,430,144  0.53    0.00                                              
[/code]

[code]

DISC INFO:

Disc Title:     TANGERINE DREAM RICOCHET
Disc Size:      31,591,430,144 bytes
Protection:     AACS(v0)
BD-Java:        No
BDInfo:         0.5.8.7 (compatible layout created by DVDFab 11.0.1.0)

PLAYLIST REPORT:

Name:                   00006.MPLS  
Length:                 0:00:11.011 (h:m:s.ms)
Size:                   731,136 bytes
Total Bitrate:          0.53 Mbps

VIDEO:

Codec                   Bitrate             Description     
-----                   -------             -----------     
MPEG-4 AVC Video        0 kbps              1080p / 23.976 fps / 16:9 / High Profile 4.1 / 

FILES:

Name            Time In         Length          Size            Total Bitrate   
----            -------         ------          ----            -------------   
00003.M2TS      0:00:00.000     0:00:05.005     221,184         353 kbps        
00004.M2TS      0:00:05.005     0:00:05.005     485,376         775 kbps        
00002.M2TS      0:00:10.010     0:00:01.000     24,576          196 kbps        

CHAPTERS:

Number          Time In         Length          Avg Video Rate  Max 1-Sec Rate  Max 1-Sec Time  Max 5-Sec Rate  Max 5-Sec Time  Max 10Sec Rate  Max 10Sec Time  Avg Frame Size  Max Frame Size  Max Frame Time  
------          -------         ------          --------------  --------------  --------------  --------------  --------------  --------------  --------------  --------------  --------------  --------------  
1               0:00:00.000     0:00:11.011     0 kbps          0 kbps          00:00:00.000    0 kbps          00:00:00.000    0 kbps          00:00:00.000    0 bytes         0 bytes         00:00:00.000    

STREAM DIAGNOSTICS:

File            PID             Type            Codec           Language                Seconds                 Bitrate                 Bytes           Packets         
----            ---             ----            -----           --------                --------------          --------------          -------------   -----           
00003.M2TS      4113 (0x1011)   0x1B            AVC                                     0.00                    0                       0               0               
00004.M2TS      4113 (0x1011)   0x1B            AVC                                     0.00                    0                       0               0               
00002.M2TS      4113 (0x1011)   0x1B            AVC                                     0.00                    0                       0               0               

[/code]
<---- END FORUMS PASTE ---->

QUICK SUMMARY:

Disc Title: TANGERINE DREAM RICOCHET
Disc Size: 31,591,430,144 bytes
Protection: AACS(v0)
BD-Java: No
Playlist: 00006.MPLS  
Size: 731,136 bytes
Length: 0:00:11.011
Total Bitrate: 0.53 Mbps
Video: MPEG-4 AVC Video / 0 kbps / 1080p / 23.976 fps / 16:9 / High Profile 4.1 / 


********************
PLAYLIST: 00005.MPLS  
********************

<--- BEGIN FORUMS PASTE --->
[code]
                                                                                                                  Total   Video                                             
Title                                                           Codec   Length   Movie Size      Disc Size       Bitrate Bitrate Main Audio Track                          Secondary Audio Track
-----                                                           ------  -------  --------------  --------------  ------- ------- ------------------                        ---------------------
00005.MPLS                                                      AVC     0:00:10  3,299,328       31,591,430,144  2.64    0.00                                              
[/code]

[code]

DISC INFO:

Disc Title:     TANGERINE DREAM RICOCHET
Disc Size:      31,591,430,144 bytes
Protection:     AACS(v0)
BD-Java:        No
BDInfo:         0.5.8.7 (compatible layout created by DVDFab 11.0.1.0)

PLAYLIST REPORT:

Name:                   00005.MPLS  
Length:                 0:00:10.010 (h:m:s.ms)
Size:                   3,299,328 bytes
Total Bitrate:          2.64 Mbps

VIDEO:

Codec                   Bitrate             Description     
-----                   -------             -----------     
MPEG-4 AVC Video        0 kbps              1080p / 23.976 fps / 16:9 / High Profile 4.1 / 

FILES:

Name            Time In         Length          Size            Total Bitrate   
----            -------         ------          ----            -------------   
00008.M2TS      0:00:00.000     0:00:10.010     3,299,328       2,636 kbps      

CHAPTERS:

Number          Time In         Length          Avg Video Rate  Max 1-Sec Rate  Max 1-Sec Time  Max 5-Sec Rate  Max 5-Sec Time  Max 10Sec Rate  Max 10Sec Time  Avg Frame Size  Max Frame Size  Max Frame Time  
------          -------         ------          --------------  --------------  --------------  --------------  --------------  --------------  --------------  --------------  --------------  --------------  
1               0:00:00.000     0:00:10.010     0 kbps          0 kbps          00:00:00.000    0 kbps          00:00:00.000    0 kbps          00:00:00.000    0 bytes         0 bytes         00:00:00.000    

STREAM DIAGNOSTICS:

File            PID             Type            Codec           Language                Seconds                 Bitrate                 Bytes           Packets         
----            ---             ----            -----           --------                --------------          --------------          -------------   -----           
00008.M2TS      4113 (0x1011)   0x1B            AVC                                     0.00                    0                       0               0               

[/code]
<---- END FORUMS PASTE ---->

QUICK SUMMARY:

Disc Title: TANGERINE DREAM RICOCHET
Disc Size: 31,591,430,144 bytes
Protection: AACS(v0)
BD-Java: No
Playlist: 00005.MPLS  
Size: 3,299,328 bytes
Length: 0:00:10.010
Total Bitrate: 2.64 Mbps
Video: MPEG-4 AVC Video / 0 kbps / 1080p / 23.976 fps / 16:9 / High Profile 4.1 / 




Create a new paste based on this one


Comments: