[ create a new paste ] login | about

Link: http://codepad.org/i6CV4ovf    [ raw code | fork ]

Plain Text, pasted on Jun 7:
foobar2000 1.1.11 / Dynamic Range Meter 1.1.1
log date: 2012-05-17 14:18:10

--------------------------------------------------------------------------------
Analyzed: Leonard Slatkin & The Saint Louis Symphony Orchestra / Gershwin: An American In Paris, Catfish Row (Suite From "Porgy And Bess") - Promenade - Rhapsody In Blue - Cuban Overture (2005 MFSL Hybrid SACD)
--------------------------------------------------------------------------------

DR         Peak         RMS     Duration Track
--------------------------------------------------------------------------------
DR14      -1.81 dB   -23.59 dB      6:10 01-Catfish Row (Suite From "Porgy and Bess"): Introduction - Act I, Scene I
DR15      -4.73 dB   -27.75 dB      5:17 02-Catfish Row (Suite From "Porgy and Bess"): Porgy Sings
DR15      -1.54 dB   -22.86 dB      1:59 03-Catfish Row (Suite From "Porgy and Bess"): Fugue
DR14      -0.41 dB   -22.13 dB      4:09 04-Catfish Row (Suite From "Porgy and Bess"): Hurricane - Act II, Scene 3
DR15      -0.44 dB   -22.64 dB      7:39 05-Catfish Row (Suite From "Porgy and Bess"): Good Morning' Brother - Act III, Scene 3
DR16      -0.44 dB   -22.20 dB     17:55 06-An American In Paris
DR14      -8.95 dB   -28.76 dB      3:13 07-Promenade
DR15      -0.76 dB   -21.72 dB     17:57 08-Rhapsody in Blue
DR15      -0.01 dB   -21.46 dB     10:24 09-Cuban Oventure
--------------------------------------------------------------------------------

Number of tracks:  9
Official DR value: DR15

Samplerate:        88200 Hz
Channels:          2
Bits per sample:   24
Bitrate:           2531 kbps
Codec:             FLAC
================================================================================




Create a new paste based on this one


Comments: