[ create a new paste ] login | about

Link: http://codepad.org/iB4fiQO2    [ raw code | fork ]

Plain Text, pasted on Nov 8:
foobar2000 1.4.6 / Dynamic Range Meter 1.1.1
log date: 2019-11-08 13:30:45

--------------------------------------------------------------------------------
Analyzed: John Coltrane / Standard Coltrane
--------------------------------------------------------------------------------

DR         Peak         RMS     Duration Track
--------------------------------------------------------------------------------
DR14     -10.60 dB   -27.55 dB      9:17 01-Don't Take Your Love From Me
DR15      -8.19 dB   -25.78 dB      8:13 02-I'll Get By
DR16      -7.37 dB   -26.14 dB      6:58 03-Spring Is Here
DR14      -7.61 dB   -26.41 dB     10:25 04-Invitation
--------------------------------------------------------------------------------

Number of tracks:  4
Official DR value: DR15

Samplerate:        2822400 Hz / PCM Samplerate: 176400 Hz
Channels:          2
Bits per sample:   1
Bitrate:           5645 kbps
Codec:             DSD64
================================================================================




Create a new paste based on this one


Comments: