[ create a new paste ] login | about

Link: http://codepad.org/iEWy1fA1    [ raw code | fork ]

Plain Text, pasted on Apr 15:
foobar2000 1.3.14 / Dynamic Range Meter 1.1.1
log date: 2017-04-14 20:23:03

--------------------------------------------------------------------------------
Analyzed: Bob Dylan / Booleg Series Vol 6
--------------------------------------------------------------------------------

DR         Peak         RMS     Duration Track
--------------------------------------------------------------------------------
DR13      -8.03 dB   -25.43 dB      3:58 01-01 The Times They Are a-Changin'
DR14      -8.01 dB   -26.09 dB      2:55 02-02 Spanish Harlem Incident
DR13      -8.87 dB   -26.34 dB      4:22 03-03 Talkin' John Birch Paranoid Blues
DR14      -8.60 dB   -27.36 dB      5:13 04-04 To Ramona
DR15      -8.06 dB   -29.32 dB      5:32 05-05 Who Killed Davey Moore?
DR15      -9.39 dB   -29.22 dB      8:37 06-06 Gates of Eden
DR14      -8.56 dB   -26.26 dB      3:56 07-07 If You Gotta Go, Go Now (Or Else You Got to Stay All Night)
DR16      -8.16 dB   -28.82 dB      9:56 08-08 It's Alright, Ma (I'm Only Bleeding)
DR15      -8.02 dB   -28.02 dB      5:25 09-09 I Don't Believe You (She Acts Like We Never Have Met)
DR16      -8.04 dB   -27.98 dB      6:38 10-10 Mr Tambourine Man
DR14      -8.08 dB   -27.46 dB      7:49 11-11 A Hard Rain's a-Gonna Fall
--------------------------------------------------------------------------------

Number of tracks:  11
Official DR value: DR15

Samplerate:        2822400 Hz / PCM Samplerate: 88200 Hz
Channels:          5
Bits per sample:   1
Bitrate:           14112 kbps
Codec:             DST64
================================================================================

--------------------------------------------------------------------------------
Analyzed: Bob Dylan / Booleg Series Vol 6
--------------------------------------------------------------------------------

DR         Peak         RMS     Duration Track
--------------------------------------------------------------------------------
DR13      -9.18 dB   -24.83 dB      3:58 01-01 The Times They Are a-Changin'
DR13      -9.05 dB   -25.46 dB      2:55 02-02 Spanish Harlem Incident
DR12      -9.76 dB   -25.71 dB      4:22 03-03 Talkin' John Birch Paranoid Blues
DR13     -10.32 dB   -26.77 dB      5:12 04-04 To Ramona
DR14      -9.81 dB   -28.08 dB      4:47 05-05 Who Killed Davey Moore?
DR13     -10.99 dB   -28.49 dB      8:37 06-06 Gates of Eden
DR13     -10.01 dB   -25.67 dB      3:56 07-07 If You Gotta Go, Go Now (Or Else You Got to Stay All Night)
DR15      -9.69 dB   -28.16 dB      9:56 08-08 It's Alright, Ma (I'm Only Bleeding)
DR14      -8.37 dB   -27.55 dB      5:29 09-09 I Don't Believe You (She Acts Like We Never Have Met)
DR14      -9.12 dB   -27.47 dB      6:38 10-10 Mr Tambourine Man
DR13      -8.13 dB   -26.56 dB      7:47 11-11 A Hard Rain's a-Gonna Fall
--------------------------------------------------------------------------------

Number of tracks:  11
Official DR value: DR13

Samplerate:        2822400 Hz / PCM Samplerate: 88200 Hz
Channels:          2
Bits per sample:   1
Bitrate:           5645 kbps
Codec:             DST64
================================================================================


foobar2000 1.3.14 / Dynamic Range Meter 1.1.1
log date: 2017-04-14 20:38:42

--------------------------------------------------------------------------------
Analyzed: Bob Dylan / Booleg Series Vol 6
--------------------------------------------------------------------------------

DR         Peak         RMS     Duration Track
--------------------------------------------------------------------------------
DR14      -8.02 dB   -25.86 dB      5:44 01-01 Talkin' World War III Blues
DR14      -8.92 dB   -27.74 dB      4:13 02-02 Don't Think Twice, It's All Right
DR15      -8.03 dB   -27.22 dB      7:07 03-03 The Lonesome Death of Hattie Carroll
DR12      -8.02 dB   -25.20 dB      3:42 04-04 Mama, You Been on My Mind
DR13      -8.24 dB   -25.48 dB      4:06 05-05 Silver Dagger
DR13      -8.02 dB   -24.62 dB      6:09 06-06 With God on Our Side
DR13      -8.04 dB   -25.59 dB      5:21 07-07 It Ain't Me, Babe
DR13      -8.02 dB   -25.09 dB      4:02 08-08 All I Really Want to Do
--------------------------------------------------------------------------------

Number of tracks:  8
Official DR value: DR13

Samplerate:        2822400 Hz / PCM Samplerate: 88200 Hz
Channels:          5
Bits per sample:   1
Bitrate:           14112 kbps
Codec:             DST64
================================================================================

--------------------------------------------------------------------------------
Analyzed: Bob Dylan / Booleg Series Vol 6
--------------------------------------------------------------------------------

DR         Peak         RMS     Duration Track
--------------------------------------------------------------------------------
DR13     -10.75 dB   -26.82 dB      5:42 01-01 Talkin' World War III Blues
DR13     -10.50 dB   -27.12 dB      4:13 02-02 Don't Think Twice, It's All Right
DR14     -10.16 dB   -27.60 dB      7:07 03-03 The Lonesome Death of Hattie Carroll
DR12      -9.65 dB   -25.62 dB      3:42 04-04 Mama, You Been on My Mind
DR12     -10.40 dB   -25.81 dB      4:06 05-05 Silver Dagger
DR12     -10.04 dB   -24.97 dB      6:09 06-06 With God on Our Side
DR12     -10.52 dB   -26.20 dB      5:21 07-07 It Ain't Me, Babe
DR12     -10.61 dB   -25.77 dB      4:02 08-08 All I Really Want to Do
--------------------------------------------------------------------------------

Number of tracks:  8
Official DR value: DR12

Samplerate:        2822400 Hz / PCM Samplerate: 88200 Hz
Channels:          2
Bits per sample:   1
Bitrate:           5645 kbps
Codec:             DST64
================================================================================




Create a new paste based on this one


Comments: