[ create a new paste ] login | about

Link: http://codepad.org/iFFT4qj2    [ raw code | fork ]

Plain Text, pasted on Nov 26:
Exact Audio Copy V1.3 from 2. September 2016

EAC extraction logfile from 22. November 2018, 7:39

The Jimi Hendrix Experience / Electric Ladyland CD3

Used drive  : PLEXTOR BD-R  PX-B950SA   Adapter: 1  ID: 1

Read mode               : Secure
Utilize accurate stream : Yes
Defeat audio cache      : Yes
Make use of C2 pointers : No

Read offset correction                      : 6
Overread into Lead-In and Lead-Out          : No
Fill up missing offset samples with silence : Yes
Delete leading and trailing silent blocks   : No
Null samples used in CRC calculations       : Yes
Used interface                              : Native Win32 interface for Win NT & 2000

Used output format : Internal WAV Routines
Sample format      : 44.100 Hz; 16 Bit; Stereo


TOC of the extracted CD

     Track |   Start  |  Length  | Start sector | End sector 
    ---------------------------------------------------------
        1  |  0:00.00 |  3:45.58 |         0    |    16932   
        2  |  3:45.58 |  9:56.39 |     16933    |    61671   
        3  | 13:42.22 |  7:59.59 |     61672    |    97655   
        4  | 21:42.06 | 11:55.28 |     97656    |   151308   
        5  | 33:37.34 |  2:42.29 |    151309    |   163487   
        6  | 36:19.63 |  1:42.66 |    163488    |   171203   
        7  | 38:02.54 |  5:27.30 |    171204    |   195758   
        8  | 43:30.09 |  7:14.40 |    195759    |   228348   
        9  | 50:44.49 |  5:11.16 |    228349    |   251689   
       10  | 55:55.65 |  4:22.58 |    251690    |   271397   
       11  | 60:18.48 |  3:26.54 |    271398    |   286901   
       12  | 63:45.27 |  4:33.35 |    286902    |   307411   


Range status and errors

Selected range

     Filename C:\Jimi Hendrix\1968 Electric Ladyland (4-Disc Box Set Legacy Records 2018)\CD3\The Jimi Hendrix Experience - Electric Ladyland CD3.wav

     Peak level 100.0 %
     Extraction speed 8.4 X
     Range quality 100.0 %
     Test CRC ACD64A1A
     Copy CRC ACD64A1A
     Copy OK

No errors occurred

 
AccurateRip summary
 
Track  1  cannot be verified as accurate (confidence 4)  [55ADF460], AccurateRip returned [0B4ACA65]  (AR v2)
Track  2  cannot be verified as accurate (confidence 4)  [B154C612], AccurateRip returned [050A15F9]  (AR v2)
Track  3  cannot be verified as accurate (confidence 4)  [CF16BE63], AccurateRip returned [8C29D127]  (AR v2)
Track  4  cannot be verified as accurate (confidence 4)  [8983D417], AccurateRip returned [E2637132]  (AR v2)
Track  5  cannot be verified as accurate (confidence 4)  [93A31047], AccurateRip returned [0DF576E0]  (AR v2)
Track  6  cannot be verified as accurate (confidence 4)  [9F826EB4], AccurateRip returned [DFC1D269]  (AR v2)
Track  7  cannot be verified as accurate (confidence 4)  [037ED296], AccurateRip returned [AD87329B]  (AR v2)
Track  8  cannot be verified as accurate (confidence 4)  [E838A45D], AccurateRip returned [D93B5160]  (AR v2)
Track  9  cannot be verified as accurate (confidence 4)  [03FFC410], AccurateRip returned [47FF9A3D]  (AR v2)
Track 10  cannot be verified as accurate (confidence 4)  [77FD94B5], AccurateRip returned [8C369D4E]  (AR v2)
Track 11  cannot be verified as accurate (confidence 4)  [12F7AFF0], AccurateRip returned [EA79E307]  (AR v2)
Track 12  cannot be verified as accurate (confidence 4)  [EACB763C], AccurateRip returned [5C29A0FD]  (AR v2)
 
No tracks could be verified as accurate
You may have a different pressing from the one(s) in the database

End of status report

---- CUETools DB Plugin V2.1.6

[CTDB TOCID: bFuGoylttAqPpXNJd5dabpsbCQo-] found
Submit result: bFuGoylttAqPpXNJd5dabpsbCQo- has been confirmed
Track | CTDB Status
  1   | (59/59) Accurately ripped
  2   | (59/59) Accurately ripped
  3   | (59/59) Accurately ripped
  4   | (59/59) Accurately ripped
  5   | (59/59) Accurately ripped
  6   | (59/59) Accurately ripped
  7   | (59/59) Accurately ripped
  8   | (59/59) Accurately ripped
  9   | (59/59) Accurately ripped
 10   | (59/59) Accurately ripped
 11   | (59/59) Accurately ripped
 12   | (59/59) Accurately ripped


==== Log checksum AE71FEB61FB0B30FB42B687CEA61DC1EF11729EC8ECE016BE8F11CB15CBAC0A5 ====



Create a new paste based on this one


Comments: