[ create a new paste ] login | about

Link: http://codepad.org/iIxMaiNV    [ raw code | fork ]

Plain Text, pasted on Mar 23:
Exact Audio Copy V1.0 beta 1 from 15. November 2010

EAC extraction logfile from 6. September 2012, 18:28

Caravan / The World Is Yours - An Anthology 1968-1976 - Disc 2

Used drive  : Optiarc DVD RW AD-7263S   Adapter: 3  ID: 0

Read mode               : Secure
Utilize accurate stream : Yes
Defeat audio cache      : Yes
Make use of C2 pointers : No

Read offset correction                      : 48
Overread into Lead-In and Lead-Out          : No
Fill up missing offset samples with silence : Yes
Delete leading and trailing silent blocks   : No
Null samples used in CRC calculations       : Yes
Used interface                              : Native Win32 interface for Win NT & 2000

Used output format              : User Defined Encoder
Selected bitrate                : 32 kBit/s
Quality                         : High
Add ID3 tag                     : No
Command line compressor         : C:\Program Files\Exact Audio Copy\Flac\flac.exe
Additional command line options : -T "DATE=%y" -T "GENRE=%m" -8 -V %s 


TOC of the extracted CD

     Track |   Start  |  Length  | Start sector | End sector 
    ---------------------------------------------------------
        1  |  0:00.00 |  5:03.10 |         0    |    22734   
        2  |  5:03.10 |  5:02.17 |     22735    |    45401   
        3  | 10:05.27 | 22:44.26 |     45402    |   147727   
        4  | 32:49.53 |  7:37.63 |    147728    |   182065   
        5  | 40:27.41 |  6:10.12 |    182066    |   209827   
        6  | 46:37.53 |  3:12.74 |    209828    |   224301   
        7  | 49:50.52 |  9:31.10 |    224302    |   267136   
        8  | 59:21.62 | 11:29.01 |    267137    |   318812   
        9  | 70:50.63 |  3:41.21 |    318813    |   335408   
       10  | 74:32.09 |  3:02.70 |    335409    |   349128   


Range status and errors

Selected range

     Filename C:\Documents and Settings\maxim\Мои документы\Мои рисунки\Caravan - The World Is Yours - An Anthology 1968-1976 - Disc 2.wav

     Peak level 98.8 %
     Extraction speed 0.1 X
     Range quality 100.0 %
     Test CRC 32DE1FE3
     Copy CRC 32DE1FE3
     Copy OK

No errors occurred

 
AccurateRip summary
 
Track  1  accurately ripped (confidence 3)  [F61722E9]
Track  2  accurately ripped (confidence 3)  [1A24DC13]
Track  3  cannot be verified as accurate (confidence 8)  [98C7EB5D], AccurateRip returned [34220B30]
Track  4  accurately ripped (confidence 3)  [2B33F949]
Track  5  accurately ripped (confidence 3)  [4473C144]
Track  6  accurately ripped (confidence 3)  [C4252F8A]
Track  7  accurately ripped (confidence 3)  [608AC8F9]
Track  8  accurately ripped (confidence 3)  [7C62B3D2]
Track  9  accurately ripped (confidence 3)  [F262D397]
Track 10  accurately ripped (confidence 3)  [F08A350D]
 
 9 track(s) accurately ripped
 1 track(s) could not be verified as accurate

Some tracks could not be verified as accurate

End of status report

==== Log checksum 63CA32DA95A4212AC775531E03F226BE5B6A0FF332883B01DDF5284FA9F6E464 ====



Create a new paste based on this one


Comments: