[ create a new paste ] login | about

Link: http://codepad.org/iSBwIVr4    [ raw code | fork ]

Plain Text, pasted on Sep 5:
foobar2000 1.4.6 / Dynamic Range Meter 1.1.1
log date: 2019-09-05 12:24:15

--------------------------------------------------------------------------------
Analyzed: Status Quo / Backbone
--------------------------------------------------------------------------------

DR         Peak         RMS     Duration Track
--------------------------------------------------------------------------------
DR8       -0.08 dB    -9.52 dB      4:28 01-Waiting for a Woman
DR10      -0.06 dB   -10.78 dB      4:21 02-Cut Me Some Slack
DR9       -0.04 dB   -10.28 dB      3:42 03-Liberty Lane
DR10      -0.02 dB   -11.17 dB      3:46 04-I See You're in Some Trouble
DR9       -0.08 dB   -11.12 dB      4:12 05-Backing Off
DR8       -0.08 dB    -9.29 dB      3:23 06-I Wanna Run Away with You
DR9        0.00 dB   -11.00 dB      3:03 07-Backbone
DR10      -0.10 dB   -11.27 dB      3:34 08-Better Take Care
DR10      -0.08 dB   -11.49 dB      3:29 09-Falling off the World
DR10      -0.07 dB   -11.34 dB      3:24 10-Get out of My Head
DR8       -0.27 dB   -10.39 dB      3:29 11-Running out of Time
--------------------------------------------------------------------------------

Number of tracks:  11
Official DR value: DR9

Samplerate:        44100 Hz
Channels:          2
Bits per sample:   16
Bitrate:           896 kbps
Codec:             FLAC
================================================================================




Create a new paste based on this one


Comments: