[ create a new paste ] login | about

Link: http://codepad.org/iVRz3Kt6    [ raw code | fork ]

Plain Text, pasted on Mar 8:
foobar2000 1.4.1 / Dynamic Range Meter 1.1.1
log date: 2019-03-08 14:27:32

--------------------------------------------------------------------------------
Analyzed: Whitesnake / Slide It In: The Ultimate Edition (2019 Remaster)
--------------------------------------------------------------------------------

DR         Peak         RMS     Duration Track
--------------------------------------------------------------------------------
DR10      -0.06 dB   -11.34 dB      3:57 01-Gambler (US Mix) [2019 Remaster]
DR10      -0.19 dB   -11.35 dB      3:19 02-Slide It In (US Mix) [2019 Remaster]
DR9       -0.17 dB   -12.16 dB      6:01 03-Slow An' Easy (US Mix) [2019 Remaster]
DR10      -0.18 dB   -11.97 dB      4:14 04-Love Ain't No Stranger (US Mix) [2019 Remaster]
DR10      -0.13 dB   -10.86 dB      3:42 05-Give Me More Time (US Mix) [2019 Remaster]
DR9       -0.20 dB   -10.34 dB      3:39 06-Standing in the Shadow (US Mix) [2019 Remaster]
DR9       -0.16 dB   -10.36 dB      3:29 07-Hungry for Love (US Mix) [2019 Remaster]
DR9       -0.15 dB   -10.36 dB      3:41 08-All or Nothing (US Mix) [2019 Remaster]
DR9       -0.18 dB   -10.84 dB      4:28 09-Spit It Out (US Mix) [2019 Remaster]
DR9       -0.21 dB   -10.28 dB      3:25 10-Guilty of Love (US Mix) [2019 Remaster]
--------------------------------------------------------------------------------

Number of tracks:  10
Official DR value: DR9

Samplerate:        44100 Hz
Channels:          2
Bits per sample:   16
Bitrate:           1060 kbps
Codec:             FLAC
================================================================================

foobar2000 1.4.1 / Dynamic Range Meter 1.1.1
log date: 2019-03-08 14:27:46

--------------------------------------------------------------------------------
Analyzed: Whitesnake / Slide It In: The Ultimate Edition (2019 Remaster)
--------------------------------------------------------------------------------

DR         Peak         RMS     Duration Track
--------------------------------------------------------------------------------
DR9       -0.21 dB   -10.85 dB      3:59 11-Gambler (UK Mix) [2019 Remaster]
DR9       -0.21 dB   -10.16 dB      3:18 12-Slide It In (UK Mix) [2019 Remaster]
DR9       -0.20 dB   -11.67 dB      6:00 13-Slow An' Easy (UK Mix) [2019 Remaster]
DR9       -0.21 dB   -10.99 dB      4:07 14-Love Ain't No Stranger (UK Mix) [2019 Remaster]
DR9       -0.23 dB   -10.04 dB      3:42 15-Give Me More Time (UK Mix) [2019 Remaster]
DR8       -0.21 dB   -10.04 dB      3:35 16-Standing in the Shadow (UK Mix) [2019 Remaster]
DR9       -0.21 dB   -10.23 dB      3:58 17-Hungry for Love (UK Mix) [2019 Remaster]
DR9       -0.21 dB   -10.69 dB      3:41 18-All or Nothing (UK Mix) [2019 Remaster]
DR9       -0.21 dB   -10.66 dB      4:14 19-Spit It Out (UK Mix) [2019 Remaster]
DR8       -0.19 dB    -9.16 dB      3:24 20-Guilty of Love (UK Mix) [2019 Remaster]
DR8       -0.23 dB   -13.00 dB      3:14 21-Need Your Love So Bad (Single B-Side) [2019 Remaster]
DR8       -0.18 dB    -9.63 dB      4:01 22-Gambler (7" Eddie Kramer Mix 1983) [2019 Remaster]
DR8       -0.18 dB    -9.05 dB      3:24 23-Guilty of Love (7" Eddie Kramer Mix 1983) [2019 Remaster]
--------------------------------------------------------------------------------

Number of tracks:  13
Official DR value: DR9

Samplerate:        44100 Hz
Channels:          2
Bits per sample:   16
Bitrate:           1043 kbps
Codec:             FLAC
================================================================================

foobar2000 1.4.1 / Dynamic Range Meter 1.1.1
log date: 2019-03-08 14:27:59

--------------------------------------------------------------------------------
Analyzed: Whitesnake / Slide It In: The Ultimate Edition (2019 Remaster)
--------------------------------------------------------------------------------

DR         Peak         RMS     Duration Track
--------------------------------------------------------------------------------
DR6       -0.33 dB    -7.24 dB      3:20 24-Slide It In (2019 Remix)
DR6       -0.49 dB    -8.61 dB      6:07 25-Slow An' Easy (2019 Remix)
DR6       -0.40 dB    -8.00 dB      4:19 26-Love Ain't No Stranger (2019 Remix)
DR5       -0.49 dB    -6.71 dB      3:40 27-Give Me More Time (2019 Remix)
DR5       -0.54 dB    -6.62 dB      3:24 28-Guilty of Love (2019 Remix)
DR5       -0.58 dB    -6.78 dB      3:48 29-All or Nothing (2019 Remix)
DR5       -0.34 dB    -6.73 dB      4:19 30-Spit It Out (2019 Remix)
DR5       -0.50 dB    -6.77 dB      3:25 31-Standing in the Shadow (2019 Remix)
DR5       -0.46 dB    -6.69 dB      4:23 32-Hungry for Love (2019 Remix)
DR6       -0.39 dB    -7.32 dB      3:57 33-Gambler (2019 Remix)
DR9       -1.03 dB   -13.77 dB      3:25 34-Need Your Love So Bad (2019 Remix)
--------------------------------------------------------------------------------

Number of tracks:  11
Official DR value: DR6

Samplerate:        44100 Hz
Channels:          2
Bits per sample:   16
Bitrate:           716 kbps
Codec:             FLAC
================================================================================

foobar2000 1.4.1 / Dynamic Range Meter 1.1.1
log date: 2019-03-08 14:28:16

--------------------------------------------------------------------------------
Analyzed: Whitesnake / Slide It In: The Ultimate Edition (2019 Remaster)
--------------------------------------------------------------------------------

DR         Peak         RMS     Duration Track
--------------------------------------------------------------------------------
DR17      -0.53 dB   -21.40 dB      0:21 35-Intro to Gambler from David Coverdale
DR7       -0.02 dB    -8.67 dB      3:58 36-Gambler (Monitor Mix) [1983]
DR7       -0.04 dB    -8.26 dB      3:36 37-Standing in the Shadow (Monitor Mix) [1983]
DR18      -1.42 dB   -21.32 dB      0:28 38-Intro to Slide It In from David Coverdale
DR8       -0.03 dB    -9.03 dB      3:19 39-Slide It In (Monitor Mix) [1983]
DR7       -0.02 dB    -8.31 dB      3:41 40-Give Me More Time (Monitor Mix) [1983]
DR17      -2.60 dB   -23.00 dB      0:13 41-Intro to Love Ain't No Stranger from David Coverdale
DR6       -0.03 dB    -8.29 dB      4:18 42-Love Ain't No Stranger (Monitor Mix) [1983]
DR8       -0.04 dB    -8.94 dB      4:23 43-Hungry for Love (Monitor Mix) [1983]
DR19      -1.62 dB   -22.33 dB      0:23 44-Intro to Guilty of Love from David Coverdale
DR8       -0.04 dB    -8.55 dB      3:23 45-Guilty of Love (Monitor Mix) [1983]
DR7       -0.03 dB    -9.21 dB      4:26 46-Spit It Out (Monitor Mix) [1983]
DR18      -1.67 dB   -22.31 dB      0:26 47-Intro to Slow An' Easy from David Coverdale
DR8       -0.04 dB   -10.07 dB      5:59 48-Slow An' Easy (Monitor Mix) [1983]
DR7       -0.02 dB    -8.13 dB      3:54 49-All or Nothing (Monitor Mix) [1983]
DR18      -1.10 dB   -21.90 dB      0:51 50-David Coverdale discusses the US vs. UK versions of Slide It In
DR6        0.00 dB    -6.97 dB      3:25 51-Gambler (Jon Lord's Last Whitesnake Show, Sweden, April 16th, 1984)
DR5        0.00 dB    -5.95 dB      3:58 52-Guilty of Love (Jon Lord's Last Whitesnake Show, Sweden, April 16th, 1984)
DR5        0.00 dB    -6.89 dB      4:29 53-Love Ain't No Stranger (Jon Lord's Last Whitesnake Show, Sweden, April 16th, 1984)
DR6       -0.03 dB    -6.81 dB      4:21 54-Ready An' Willing (Jon Lord's Last Whitesnake Show, Sweden, April 16th, 1984)
--------------------------------------------------------------------------------

Number of tracks:  20
Official DR value: DR10

Samplerate:        44100 Hz
Channels:          2
Bits per sample:   16
Bitrate:           756 kbps
Codec:             FLAC
================================================================================

foobar2000 1.4.1 / Dynamic Range Meter 1.1.1
log date: 2019-03-08 14:28:36

--------------------------------------------------------------------------------
Analyzed: Whitesnake / Slide It In: The Ultimate Edition (2019 Remaster)
--------------------------------------------------------------------------------

DR         Peak         RMS     Duration Track
--------------------------------------------------------------------------------
DR8       -0.04 dB    -9.18 dB      3:27 55-All or Nothing (Early Ruff Mix with Unfinished Lyrics)
DR8       -0.03 dB   -10.06 dB      4:22 56-Hungry for Love (Early Ruff Mix with Unfinished Lyrics)
DR7       -0.02 dB    -8.44 dB      4:30 57-Spit It Out (Early Ruff Mix with Unfinished Lyrics)
DR9       -0.02 dB    -9.82 dB      3:40 58-Give Me More Time (Early Ruff Mix with Unfinished Lyrics)
DR9       -0.03 dB   -11.52 dB      6:06 59-Slow An' Easy (Early Ruff Mix with Unfinished Lyrics)
DR8       -0.03 dB    -9.93 dB      4:22 60-Love Ain't No Stranger (Early Ruff Mix with Unfinished Lyrics)
DR9       -0.05 dB   -14.28 dB      3:15 61-Need Your Love So Bad (feat. Jon Lord) [Instrumental] [Early Ruff Mix with Unfinished Lyrics]
DR10      -0.05 dB   -13.75 dB      1:17 62-Slow An' Easy (A Capella Excerpts Remix)
DR9       -0.02 dB   -11.10 dB      1:36 63-All Or Nothing (Organ & Drums Excerpts Remix)
DR8       -0.02 dB   -11.55 dB      6:54 64-Wheezy Interludes (Various Alcoholic Studio Antics, David and Mel "fighting a cold"))
DR10      -0.05 dB   -10.65 dB      3:54 65-Slow An' Easy (Original Demo)
DR9       -0.17 dB   -11.54 dB      0:44 66-Slide It In (Original Demo)
DR10      -0.05 dB   -12.52 dB      2:50 67-Standing in the Shadow (Original Demo)
DR9       -1.20 dB   -12.41 dB      1:55 68-All or Nothing (Original Demo)
DR10      -0.06 dB   -12.37 dB      1:20 69-Spit It Out (Original Demo)
DR10      -1.35 dB   -12.51 dB      2:22 70-Guilty of Love (Original Demo)
DR10      -0.05 dB   -12.78 dB      1:20 71-Love Ain't No Stranger (Original Demo)
DR15      -1.33 dB   -20.67 dB      0:33 72-Intro to Need Your Love So Bad from David Coverdale
DR9       -0.99 dB   -12.75 dB      3:24 73-Need Your Love So Bad (Original Demo)
DR10      -0.06 dB   -10.46 dB      2:17 74-Body Heat (Unfinished Symphpnies Original Demo)
DR11      -0.12 dB   -12.14 dB      1:48 75-The Gypsy in You (Unfinished Symphonies)
DR8       -0.10 dB    -9.21 dB      1:46 76-Lounge Lizards (Unfinished Symphonies)
DR7       -2.67 dB   -10.76 dB      0:24 77-Great Riff in the Morning (Unfinished Symphonies)
DR9       -0.05 dB    -9.23 dB      0:57 78-The River Song (Unfinished Symphonies)
DR12      -0.27 dB   -14.28 dB      1:56 79-Can't Make a Deal With the Devil (Unfinished Symphonies)
DR11      -0.03 dB   -13.47 dB      2:15 80-Prayer for the Dying (Unfinished Symphonies)
DR8       -0.04 dB    -8.91 dB      1:28 81-Spend the Night With Me (Unfinished Symphonies)
DR10      -0.04 dB   -10.66 dB      1:05 82-So Much to Live for (Unfinished Symphonies)
DR10      -0.05 dB   -11.59 dB      1:21 83-Riff Raff Blues (Unfinished Symphonies)
DR13      -0.05 dB   -15.44 dB      0:51 84-Thank You Blues (Unfinished Symphonies)
--------------------------------------------------------------------------------

Number of tracks:  30
Official DR value: DR9

Samplerate:        44100 Hz
Channels:          2
Bits per sample:   16
Bitrate:           635 kbps
Codec:             FLAC
================================================================================




Create a new paste based on this one


Comments: