[ create a new paste ] login | about

Link: http://codepad.org/icA1W2e5    [ raw code | fork ]

Plain Text, pasted on Jun 2:
foobar2000 1.5 / Dynamic Range Meter 1.1.1
log date: 2020-06-01 23:03:55

--------------------------------------------------------------------------------
Analyzed: Poco / Cantamos & Seven
--------------------------------------------------------------------------------

DR         Peak         RMS     Duration Track
--------------------------------------------------------------------------------
DR8       -6.27 dB   -23.64 dB      5:00 01-Sagebrush Serenade 
DR9       -5.72 dB   -24.54 dB      4:14 02-Susannah  
DR8       -6.48 dB   -23.29 dB      4:52 03-High and Dry  
DR8       -6.68 dB   -23.82 dB      4:00 04-Western Waterloo 
DR9       -5.39 dB   -24.05 dB      3:36 05-One Horse Blue 
DR8       -8.16 dB   -25.58 dB      3:22 06-Bitter Blue  
DR9       -6.78 dB   -24.94 dB      5:00 07-Another Time Around 
DR8       -7.30 dB   -24.20 dB      3:14 08-Whatever Happened to Your Smile 
DR9       -6.12 dB   -24.80 dB      3:29 09-All the Ways  
DR9       -6.04 dB   -24.96 dB      6:13 10-Drivin Wheel  
DR8       -6.20 dB   -24.12 dB      2:16 11-Rocky Mountain Breakdown  
DR9       -5.47 dB   -23.83 dB      5:11 12-Just Call My Name 
DR9       -6.10 dB   -24.49 dB      4:39 13-Skatin 
DR8       -7.94 dB   -25.89 dB      3:43 14-Faith in the Families  
DR9       -6.02 dB   -25.21 dB      3:34 15-Krikkits Song  Passing Through 
DR9       -5.50 dB   -24.56 dB      4:53 16-Angel  
DR9       -6.75 dB   -25.13 dB      5:15 17-Youve Got Your Reasons 
--------------------------------------------------------------------------------

Number of tracks:  17
Official DR value: DR9

Samplerate:        2822400 Hz / PCM Samplerate: 176400 Hz
Channels:          6
Bits per sample:   1
Bitrate:           16934 kbps
Codec:             DST64
================================================================================

--------------------------------------------------------------------------------
Analyzed: Poco / Cantamos & Seven
--------------------------------------------------------------------------------

DR         Peak         RMS     Duration Track
--------------------------------------------------------------------------------
DR13      -6.65 dB   -21.73 dB      5:00 01-Sagebrush Serenade 
DR13      -8.02 dB   -23.87 dB      4:14 02-Susannah  
DR12      -6.47 dB   -19.78 dB      4:52 03-High and Dry  
DR12      -6.93 dB   -20.77 dB      4:00 04-Western Waterloo 
DR12      -8.48 dB   -21.88 dB      3:36 05-One Horse Blue 
DR12      -7.15 dB   -22.63 dB      3:20 06-Bitter Blue  
DR13      -6.29 dB   -20.79 dB      5:02 07-Another Time Around 
DR12      -9.59 dB   -23.36 dB      3:15 08-Whatever Happened to Your Smile 
DR11      -8.79 dB   -22.10 dB      3:29 09-All the Ways  
DR13      -5.59 dB   -21.46 dB      6:12 10-Drivin Wheel  
DR14      -5.83 dB   -21.46 dB      2:16 11-Rocky Mountain Breakdown  
DR14      -5.57 dB   -21.98 dB      5:11 12-Just Call My Name 
DR14      -6.19 dB   -21.71 dB      4:39 13-Skatin 
DR12      -7.93 dB   -21.76 dB      3:43 14-Faith in the Families  
DR14      -5.53 dB   -22.47 dB      3:34 15-Krikkits Song  Passing Through 
DR14      -5.58 dB   -22.24 dB      4:53 16-Angel  
DR14      -5.94 dB   -21.66 dB      5:16 17-Youve Got Your Reasons 
--------------------------------------------------------------------------------

Number of tracks:  17
Official DR value: DR13

Samplerate:        2822400 Hz / PCM Samplerate: 176400 Hz
Channels:          2
Bits per sample:   1
Bitrate:           5645 kbps
Codec:             DST64
================================================================================




Create a new paste based on this one


Comments: