[ create a new paste ] login | about

Link: http://codepad.org/iheJK0hW    [ raw code | fork ]

Plain Text, pasted on Jun 16:
foobar2000 1.3.15 / Dynamic Range Meter 1.1.1
log date: 2017-06-16 10:55:47

--------------------------------------------------------------------------------
Analyzed: Styx / The Mission
--------------------------------------------------------------------------------

DR         Peak         RMS     Duration Track
--------------------------------------------------------------------------------
DR6       -0.05 dB    -8.50 dB      1:23 01-Overture
DR7        0.00 dB    -9.04 dB      2:08 02-Gone Gone Gone
DR8        0.00 dB    -9.86 dB      3:40 03-Hundred Million Miles From Home
DR8       -0.14 dB   -11.91 dB      2:30 04-Trouble At The Big Show
DR9        0.00 dB   -13.18 dB      5:04 05-Locomotive
DR8        0.00 dB   -10.87 dB      4:19 06-Radio Silence
DR8        0.00 dB   -11.25 dB      4:10 07-The Greater Good
DR9       -0.14 dB   -12.49 dB      2:31 08-Time May Bend
DR8       -0.51 dB   -12.56 dB      1:22 09-Ten Thousand Ways
DR8       -0.16 dB   -10.87 dB      6:04 10-Red Storm
DR15      -5.67 dB   -26.46 dB      0:18 11-All Systems Stable
DR9       -0.54 dB   -12.24 dB      2:04 12-Khedive
DR9        0.00 dB   -10.99 dB      3:51 13-The Outpost
DR8       -0.23 dB   -10.81 dB      2:46 14-Mission To Mars
--------------------------------------------------------------------------------

Number of tracks:  14
Official DR value: DR9

Samplerate:        88200 Hz
Channels:          2
Bits per sample:   24
Bitrate:           2916 kbps
Codec:             FLAC
================================================================================




Create a new paste based on this one


Comments: