[ create a new paste ] login | about

Link: http://codepad.org/ijv82JfQ    [ raw code | fork ]

Plain Text, pasted on Jun 20:
foobar2000 1.5 / Dynamic Range Meter 1.1.1
log date: 2020-06-19 20:42:04

--------------------------------------------------------------------------------
Analyzed: Bob Dylan / Rough and Rowdy Ways
--------------------------------------------------------------------------------

DR         Peak         RMS     Duration Track
--------------------------------------------------------------------------------
DR15      -0.64 dB   -18.58 dB      4:37 01-I Contain Multitudes
DR12      -0.22 dB   -13.34 dB      6:00 02-False Prophet
DR14      -0.12 dB   -16.28 dB      6:41 03-My Own Version of You
DR15       0.00 dB   -18.05 dB      6:32 04-I've Made Up My Mind to Give Myself to You
DR14      -1.49 dB   -17.36 dB      4:13 05-Black Rider
DR13      -0.12 dB   -13.85 dB      4:14 06-Goodbye Jimmy Reed
DR12      -3.15 dB   -17.77 dB      4:29 07-Mother of Muses
DR13      -0.12 dB   -15.82 dB      7:23 08-Crossing the Rubicon
DR15       0.00 dB   -17.17 dB      9:34 09-Key West (Philosopher Pirate)
DR14       0.00 dB   -18.65 dB     16:55 10-Murder Most Foul
--------------------------------------------------------------------------------

Number of tracks:  10
Official DR value: DR14

Samplerate:        96000 Hz
Channels:          2
Bits per sample:   24
Bitrate:           2723 kbps
Codec:             FLAC
================================================================================




Create a new paste based on this one


Comments: