[ create a new paste ] login | about

Link: http://codepad.org/ilPt2PO9    [ raw code | fork ]

Plain Text, pasted on Jun 7:
foobar2000 1.3 / Dynamic Range Meter 1.1.1
log date: 2014-09-19 11:12:16

--------------------------------------------------------------------------------
Analyzed: Stanislaw Skrowaczewski & Minnesota Orchestra / Ravel: Bolero, La Valse, Rapsodie Espagnole, Pavane (2003 MFSL Hybrid SACD)
--------------------------------------------------------------------------------

DR         Peak         RMS     Duration Track
--------------------------------------------------------------------------------
DR12      -1.24 dB   -27.19 dB     17:23 01-Bolero
DR11     -10.82 dB   -33.70 dB      6:58 02-Pavane
DR14      -0.01 dB   -28.55 dB     16:17 03-Rapsodie Espagnole
DR12      -0.82 dB   -25.45 dB     12:28 04-La Valse
DR14      -0.91 dB   -26.80 dB     17:19 05-Daphnis And Chloe (Suite 2)
DR14      -2.80 dB   -23.00 dB      4:32 06-Daphnis And Chloe (Suite 2: Segment, Chloe Is Accosted)
--------------------------------------------------------------------------------

Number of tracks:  6
Official DR value: DR13

Samplerate:        88200 Hz
Channels:          6
Bits per sample:   24
Bitrate:           5769 kbps
Codec:             FLAC
================================================================================




Create a new paste based on this one


Comments: