[ create a new paste ] login | about

Link: http://codepad.org/imrYxavZ    [ raw code | fork ]

Plain Text, pasted on Mar 14:
foobar2000 1.4.1 / Dynamic Range Meter 1.1.1
log date: 2019-03-14 10:35:24

--------------------------------------------------------------------------------
Analyzed: Encoded by LosslessMA.net -> Johannette Zomer, soprano / Fred Jacobs, theorbo / Splendore di Roma
--------------------------------------------------------------------------------

DR         Peak         RMS     Duration Track
--------------------------------------------------------------------------------
DR11      -1.84 dB   -24.46 dB      2:07 01-Dove mi lasci (1623)
DR14      -3.07 dB   -26.48 dB      4:08 02-Gia risi del mio mal (1619)
DR13      -2.94 dB   -24.35 dB      1:37 03-Cinta di rose (1623)
DR12      -5.61 dB   -25.92 dB      0:42 04-Pargoletto son io (1623)
DR13     -12.78 dB   -33.64 dB      2:43 05-Toccata III (1626)
DR14      -1.72 dB   -22.56 dB      1:59 06-Su l'oriente
DR13      -1.15 dB   -22.60 dB      3:42 07-Empio cor, core ingrate
DR11     -14.45 dB   -31.69 dB      1:31 08-Gagliarda (1640)
DR13      -1.64 dB   -22.43 dB      4:55 09-Fin dal monte Sion (1640)
DR14      -1.47 dB   -23.05 dB      4:55 10-Spoglie che fosti (Didone) (1640)
DR14      -1.96 dB   -24.97 dB      1:49 11-Voi, voi rubaste il core (1621)
DR13     -14.35 dB   -33.86 dB      4:36 12-Canzone I (1640)
DR16      -0.82 dB   -25.39 dB      2:21 13-Leggiadra rosa (1621)
DR13      -1.57 dB   -23.32 dB      2:02 14-Non si scherzi con amore (1627)
DR12     -12.99 dB   -32.83 dB      3:14 15-Toccata II (1640)
DR14      -0.98 dB   -24.51 dB      6:58 16-Or che la notte del silenzio amica
DR13     -11.92 dB   -32.94 dB      3:39 17-Passacaglia (1640)
DR14      -0.01 dB   -23.15 dB      2:29 18-Disperati che aspetti piu
DR13      -3.19 dB   -24.57 dB      1:57 19-Addio, perfida, addio
--------------------------------------------------------------------------------

Number of tracks:  19
Official DR value: DR13

Samplerate:        88200 Hz
Channels:          5
Bits per sample:   24
Bitrate:           5559 kbps
Codec:             FLAC
================================================================================




Create a new paste based on this one


Comments: