[ create a new paste ] login | about

Link: http://codepad.org/ioiCzUvt    [ raw code | fork ]

Plain Text, pasted on Dec 13:
Exact Audio Copy V1.0 beta 3 from 29. August 2011

EAC extraction logfile from 17. July 2014, 17:17

The Beatles / In The Beginning...

Used drive  : ASUS    CRW-5224A   Adapter: 2  ID: 0

Read mode               : Secure
Utilize accurate stream : Yes
Defeat audio cache      : Yes
Make use of C2 pointers : No

Read offset correction                      : 6
Overread into Lead-In and Lead-Out          : No
Fill up missing offset samples with silence : Yes
Delete leading and trailing silent blocks   : No
Null samples used in CRC calculations       : Yes
Used interface                              : Native Win32 interface for Win NT & 2000

Used output format : Internal WAV Routines
Sample format      : 44.100 Hz; 16 Bit; Stereo


TOC of the extracted CD

     Track |   Start  |  Length  | Start sector | End sector 
    ---------------------------------------------------------
        1  |  0:00.32 |  2:21.35 |        32    |    10641   
        2  |  2:21.67 |  2:58.35 |     10642    |    24026   
        3  |  5:20.27 |  2:30.68 |     24027    |    35344   
        4  |  7:51.20 |  2:21.67 |     35345    |    45986   
        5  | 10:13.12 |  1:53.05 |     45987    |    54466   
        6  | 12:06.17 |  2:02.20 |     54467    |    63636   
        7  | 14:08.37 |  2:58.63 |     63637    |    77049   
        8  | 17:07.25 |  2:19.10 |     77050    |    87484   
        9  | 19:26.35 |  1:37.00 |     87485    |    94759   
       10  | 21:03.35 |  2:35.45 |     94760    |   106429   
       11  | 23:39.05 |  2:20.17 |    106430    |   116946   
       12  | 25:59.22 |  1:58.03 |    116947    |   125799   


Range status and errors

Selected range

     Filename C:\Music\Beatles Decca\1989 - In The Beginning\The Beatles - In The Beginning....wav

     Peak level 100.0 %
     Extraction speed 2.4 X
     Range quality 100.0 %
     Copy CRC 663F3E1E
     Copy OK

No errors occurred

End of status report



Create a new paste based on this one


Comments: