[ create a new paste ] login | about

Link: http://codepad.org/ipgEXHlO    [ raw code | fork ]

Plain Text, pasted on Dec 5:
foobar2000 1.3.16 / Dynamic Range Meter 1.1.1
log date: 2017-12-05 13:50:23

--------------------------------------------------------------------------------
Analyzed: U2 & Kygo / Songs Of Experience (Deluxe Edition) (1)
          U2 / Songs Of Experience (Deluxe Edition) (2-17)
--------------------------------------------------------------------------------

DR         Peak         RMS     Duration Track
--------------------------------------------------------------------------------
DR8        0.00 dB    -9.59 dB      4:16 17-You’re The Best Thing About Me (U2 Vs. Kygo)
DR9       -3.07 dB   -13.44 dB      2:41 01-Love Is All We Have Left
DR7        0.00 dB    -9.94 dB      4:17 02-Lights Of Home
DR8        0.00 dB    -9.56 dB      3:45 03-You’re The Best Thing About Me
DR8        0.00 dB   -10.75 dB      3:58 04-Get Out Of Your Own Way
DR7        0.00 dB    -9.00 dB      4:22 05-American Soul
DR8        0.00 dB   -10.64 dB      3:24 06-Summer Of Love
DR8        0.00 dB    -9.99 dB      3:20 07-Red Flag Day
DR8        0.00 dB   -10.15 dB      3:24 08-The Showman (Little More Better)
DR9        0.00 dB   -12.60 dB      4:55 09-The Little Things That Give You Away
DR9        0.00 dB   -11.81 dB      4:01 10-Landlady
DR7        0.00 dB    -9.00 dB      4:46 11-The Blackout
DR7        0.00 dB    -9.82 dB      4:01 12-Love Is Bigger Than Anything In Its Way
DR10       0.00 dB   -13.00 dB      4:20 13-13 (There is A Light)
DR9        0.00 dB   -11.28 dB      3:47 14-Ordinary Love (Extraordinary Mix)
DR9        0.00 dB   -10.49 dB      3:55 15-Book Of Your Heart
DR7       -0.14 dB   -10.07 dB      4:33 16-Lights Of Home (St Peter's String Version)
--------------------------------------------------------------------------------

Number of tracks:  17
Official DR value: DR8

Samplerate:        44100 Hz
Channels:          2
Bits per sample:   16
Bitrate:           916 kbps
Codec:             FLAC
================================================================================




Create a new paste based on this one


Comments: