[ create a new paste ] login | about

Link: http://codepad.org/irealyGY    [ raw code | fork ]

Plain Text, pasted on Aug 22:
foobar2000 1.3.17 / Dynamic Range Meter 1.1.1
log date: 2018-08-21 21:49:09

--------------------------------------------------------------------------------
Analyzed: Marillion / All One Tonight (Live At The Royal Albert Hall)
--------------------------------------------------------------------------------

DR         Peak         RMS     Duration Track
--------------------------------------------------------------------------------
DR13      -0.20 dB   -19.43 dB     19:54 01-El Dorado
DR13      -0.20 dB   -18.07 dB      9:09 02-Living In F E A R
DR13      -0.20 dB   -17.54 dB     20:08 03-The Leavers
DR11      -0.20 dB   -17.54 dB      7:42 04-White Paper
DR13      -0.20 dB   -15.71 dB     16:49 05-The New Kings
DR13      -0.44 dB   -23.17 dB      1:47 06-Tomorrow's New Country
DR12      -0.02 dB   -18.70 dB      8:36 07-The Space
DR13      -0.10 dB   -18.46 dB      7:43 08-Afraid Of Sunlight
DR13      -0.04 dB   -19.40 dB     11:12 09-The Great Escape
DR12      -0.34 dB   -17.04 dB      7:05 10-Easter
DR13      -0.07 dB   -19.88 dB      8:59 11-Go!
DR12      -0.02 dB   -17.09 dB      9:21 12-Man Of A Thousand Faces
DR12      -0.16 dB   -18.31 dB      6:44 13-Waiting To Happen
DR12      -0.03 dB   -16.44 dB     12:31 14-Neverland
DR11      -0.02 dB   -16.63 dB      6:24 15-The Leavers - V. One Tonight
--------------------------------------------------------------------------------

Number of tracks:  15
Official DR value: DR12

Samplerate:        96000 Hz
Channels:          6
Bits per sample:   24
Bitrate:           7818 kbps
Codec:             FLAC
================================================================================




Create a new paste based on this one


Comments: