[ create a new paste ] login | about

Link: http://codepad.org/itERbTDd    [ raw code | fork ]

Plain Text, pasted on Nov 22:
Exact Audio Copy V1.3 from 2. September 2016

EAC extraction logfile from 20. November 2018, 8:09

The Beatles / The White Album CD5 Sessions

Used drive  : PLEXTOR BD-R  PX-B950SA   Adapter: 1  ID: 1

Read mode               : Secure
Utilize accurate stream : Yes
Defeat audio cache      : Yes
Make use of C2 pointers : No

Read offset correction                      : 6
Overread into Lead-In and Lead-Out          : No
Fill up missing offset samples with silence : Yes
Delete leading and trailing silent blocks   : No
Null samples used in CRC calculations       : Yes
Used interface                              : Native Win32 interface for Win NT & 2000

Used output format : Internal WAV Routines
Sample format      : 44.100 Hz; 16 Bit; Stereo


TOC of the extracted CD

     Track |   Start  |  Length  | Start sector | End sector 
    ---------------------------------------------------------
        1  |  0:00.00 |  3:08.07 |         0    |    14106   
        2  |  3:08.07 |  3:02.46 |     14107    |    27802   
        3  |  6:10.53 |  6:44.36 |     27803    |    58138   
        4  | 12:55.14 |  0:51.43 |     58139    |    62006   
        5  | 13:46.57 |  4:28.69 |     62007    |    82175   
        6  | 18:15.51 |  3:11.32 |     82176    |    96532   
        7  | 21:27.08 |  3:57.41 |     96533    |   114348   
        8  | 25:24.49 |  2:06.56 |    114349    |   123854   
        9  | 27:31.30 |  4:57.05 |    123855    |   146134   
       10  | 32:28.35 |  3:09.50 |    146135    |   160359   
       11  | 35:38.10 |  3:59.63 |    160360    |   178347   
       12  | 39:37.73 |  1:17.74 |    178348    |   184196   
       13  | 40:55.72 |  3:17.23 |    184197    |   198994   
       14  | 44:13.20 |  0:42.52 |    198995    |   202196   
       15  | 44:55.72 |  3:39.16 |    202197    |   218637   
       16  | 48:35.13 |  2:12.26 |    218638    |   228563   


Range status and errors

Selected range

     Filename C:\The Beatles\1968 The White Album (7-Disc Box Set UMC 2018)\CD5 Sessions\The Beatles - The White Album CD5 Sessions.wav

     Peak level 97.9 %
     Extraction speed 3.2 X
     Range quality 100.0 %
     Test CRC F82EF000
     Copy CRC F82EF000
     Copy OK

No errors occurred

 
AccurateRip summary
 
Track  1  accurately ripped (confidence 8)  [E4B2F2A1]  (AR v2)
Track  2  accurately ripped (confidence 8)  [F5C80EB0]  (AR v2)
Track  3  accurately ripped (confidence 8)  [F0B9B565]  (AR v2)
Track  4  accurately ripped (confidence 8)  [A7273624]  (AR v2)
Track  5  accurately ripped (confidence 8)  [6B48FE7F]  (AR v2)
Track  6  accurately ripped (confidence 8)  [59E69FB6]  (AR v2)
Track  7  accurately ripped (confidence 8)  [B2358DD1]  (AR v2)
Track  8  accurately ripped (confidence 8)  [A5174A41]  (AR v2)
Track  9  accurately ripped (confidence 8)  [B8FAFDAB]  (AR v2)
Track 10  accurately ripped (confidence 8)  [8CE09FB8]  (AR v2)
Track 11  accurately ripped (confidence 7)  [D0B22D5F]  (AR v2)
Track 12  accurately ripped (confidence 7)  [CED65294]  (AR v2)
Track 13  accurately ripped (confidence 7)  [A00CE8F3]  (AR v2)
Track 14  accurately ripped (confidence 7)  [C9B65BD6]  (AR v2)
Track 15  accurately ripped (confidence 7)  [27BA8F78]  (AR v2)
Track 16  accurately ripped (confidence 7)  [1F95BB86]  (AR v2)
 
All tracks accurately ripped

End of status report

---- CUETools DB Plugin V2.1.6

[CTDB TOCID: BWup0W9bfLaZBn3MlG7TrK3s8jQ-] found
Submit result: BWup0W9bfLaZBn3MlG7TrK3s8jQ- has been confirmed
Track | CTDB Status
  1   | (245/245) Accurately ripped
  2   | (245/245) Accurately ripped
  3   | (245/245) Accurately ripped
  4   | (245/245) Accurately ripped
  5   | (245/245) Accurately ripped
  6   | (245/245) Accurately ripped
  7   | (245/245) Accurately ripped
  8   | (245/245) Accurately ripped
  9   | (245/245) Accurately ripped
 10   | (245/245) Accurately ripped
 11   | (244/245) Accurately ripped
 12   | (245/245) Accurately ripped
 13   | (244/245) Accurately ripped
 14   | (245/245) Accurately ripped
 15   | (243/245) Accurately ripped
 16   | (242/245) Accurately ripped


==== Log checksum 0E4B5F9BDAEC64240D4856223C09AEFCF7B953B8EE238D24D8761CEAA9CBB9F7 ====



Create a new paste based on this one


Comments: