[ create a new paste ] login | about

Link: http://codepad.org/itReO5DE    [ raw code | fork ]

Plain Text, pasted on Mar 13:
Exact Audio Copy V1.0 beta 6 from 9. April 2015

EAC extraction logfile from 7. March 2019, 18:52

Tom Petty / The Best Of Everything - 1976-2016 [Disc Two]

Used drive  : ATAPI   iHAS122   C   Adapter: 1  ID: 0

Read mode               : Secure
Utilize accurate stream : Yes
Defeat audio cache      : Yes
Make use of C2 pointers : No

Read offset correction                      : 6
Overread into Lead-In and Lead-Out          : No
Fill up missing offset samples with silence : Yes
Delete leading and trailing silent blocks   : No
Null samples used in CRC calculations       : Yes
Used interface                              : Native Win32 interface for Win NT & 2000

Used output format : Internal WAV Routines
Sample format      : 44.100 Hz; 16 Bit; Stereo


TOC of the extracted CD

     Track |   Start  |  Length  | Start sector | End sector 
    ---------------------------------------------------------
        1  |  0:00.00 |  3:10.62 |         0    |    14311   
        2  |  3:10.62 |  4:00.52 |     14312    |    32363   
        3  |  7:11.39 |  4:23.36 |     32364    |    52124   
        4  | 11:35.00 |  3:30.30 |     52125    |    67904   
        5  | 15:05.30 |  2:22.61 |     67905    |    78615   
        6  | 17:28.16 |  4:36.10 |     78616    |    99325   
        7  | 22:04.26 |  3:32.30 |     99326    |   115255   
        8  | 25:36.56 |  4:22.03 |    115256    |   134908   
        9  | 29:58.59 |  3:00.02 |    134909    |   148410   
       10  | 32:58.61 |  4:02.64 |    148411    |   166624   
       11  | 37:01.50 |  3:19.00 |    166625    |   181549   
       12  | 40:20.50 |  3:41.22 |    181550    |   198146   
       13  | 44:01.72 |  5:01.28 |    198147    |   220749   
       14  | 49:03.25 |  3:25.55 |    220750    |   236179   
       15  | 52:29.05 |  4:02.72 |    236180    |   254401   
       16  | 56:32.02 |  3:34.16 |    254402    |   270467   
       17  | 60:06.18 |  5:56.18 |    270468    |   297185   
       18  | 66:02.36 |  4:13.58 |    297186    |   316218   
       19  | 70:16.19 |  3:51.71 |    316219    |   333614   


Range status and errors

Selected range

     Filename C:\Tom Petty - The Best Of Everything - 1976-2016 [Disc Two].wav

     Peak level 100.0 %
     Extraction speed 8.2 X
     Range quality 99.9 %
     Test CRC 2AF3D07F
     Copy CRC 2AF3D07F
     Copy OK

No errors occurred

 
AccurateRip summary
 
Track  1  not present in database
Track  2  not present in database
Track  3  not present in database
Track  4  not present in database
Track  5  not present in database
Track  6  not present in database
Track  7  not present in database
Track  8  not present in database
Track  9  not present in database
Track 10  not present in database
Track 11  not present in database
Track 12  not present in database
Track 13  not present in database
Track 14  not present in database
Track 15  not present in database
Track 16  not present in database
Track 17  not present in database
Track 18  not present in database
Track 19  not present in database
 
None of the tracks are present in the AccurateRip database

End of status report

---- CUETools DB Plugin V2.1.6

[CTDB TOCID: wVJiMDi3Zx7IiIqaLWnlNmhCubI-] found
Submit result: wVJiMDi3Zx7IiIqaLWnlNmhCubI- has been confirmed
Track | CTDB Status
  1   | (17/17) Accurately ripped
  2   | (17/17) Accurately ripped
  3   | (17/17) Accurately ripped
  4   | (17/17) Accurately ripped
  5   | (17/17) Accurately ripped
  6   | (17/17) Accurately ripped
  7   | (17/17) Accurately ripped
  8   | (17/17) Accurately ripped
  9   | (17/17) Accurately ripped
 10   | (17/17) Accurately ripped
 11   | (17/17) Accurately ripped
 12   | (17/17) Accurately ripped
 13   | (17/17) Accurately ripped
 14   | (17/17) Accurately ripped
 15   | (17/17) Accurately ripped
 16   | (17/17) Accurately ripped
 17   | (17/17) Accurately ripped
 18   | (17/17) Accurately ripped
 19   | (16/17) Accurately ripped


==== Log checksum 2F0C2B3D457AB5BD8041FBC0B9118D8D6719BE6FF488017A18BB8F5DC1DF43BE ====



Create a new paste based on this one


Comments: