[ create a new paste ] login | about

Link: http://codepad.org/iwFcB8uK    [ raw code | fork ]

Plain Text, pasted on Apr 27:
[CUETools log; Date: 4/27/2016 7:51:58 AM; Version: 2.1.5]
[CTDB TOCID: Bgr9yrq2C_Dgzxe2B6WGmPvMYd0-] found.
Track | CTDB Status
  1   | (42/42) Accurately ripped
  2   | (42/42) Accurately ripped
  3   | (42/42) Accurately ripped
  4   | (42/42) Accurately ripped
  5   | (42/42) Accurately ripped
  6   | (42/42) Accurately ripped
  7   | (42/42) Accurately ripped
  8   | (42/42) Accurately ripped
[AccurateRip ID: 000dd714-005cc611-6b0b1d08] found.
Track   [  CRC   |   V2   ] Status
 01     [0fc2bc3f|177cc8fc] (0+0/1) No match
 02     [02168d77|37dc4f5b] (0+0/1) No match
 03     [8ad8eead|bd9210f9] (0+0/1) No match
 04     [6fcc94b0|052038e4] (0+0/1) No match
 05     [2e66c972|ecd6271e] (0+0/1) No match
 06     [9b3c91c3|fbe0b10c] (0+0/1) No match
 07     [8b018bc3|6baa2ae5] (0+0/1) No match
 08     [79f87f6e|8bad312a] (0+0/1) No match
Offsetted by -12:
 01     [a0cc865b] (0/1) No match (V2 was not tested)
 02     [da9f1c20] (0/1) No match (V2 was not tested)
 03     [d821f249] (0/1) No match (V2 was not tested)
 04     [87d618fc] (0/1) No match (V2 was not tested)
 05     [f58dfdca] (0/1) No match (V2 was not tested)
 06     [92e58f2b] (0/1) No match (V2 was not tested)
 07     [629c4e73] (0/1) No match (V2 was not tested)
 08     [dae43d0a] (0/1) No match (V2 was not tested)

Track Peak [ CRC32  ] [W/O NULL] [  LOG   ]
 --  100.0 [5BCEF879] [BD5061A0]           
 01  100.0 [79443EA7] [91B78DF2]   CRC32   
 02  100.0 [4A33C386] [81E2B53A]   CRC32   
 03  100.0 [3363B49D] [7FA21FB3]   CRC32   
 04  100.0 [6F23EB32] [DEF80041]   CRC32   
 05  100.0 [2B443DE4] [8512AC14]   CRC32   
 06  100.0 [6543BC35] [6690FE7B]   CRC32   
 07  100.0 [1330C4FA] [4ABA6524]   CRC32   
 08  100.0 [003F75DB] [8CAEC4EB]   CRC32   



Create a new paste based on this one


Comments: