[ create a new paste ] login | about

Link: http://codepad.org/iwm4eZFP    [ raw code | fork ]

Plain Text, pasted on Aug 30:
Exact Audio Copy V1.3 from 2. September 2016

EAC extraction logfile from 15. August 2019, 17:24

Climax Chicago Blues Band / A Lot Of Bottle

Used drive  : PLEXTOR BD-R  PX-B950SA   Adapter: 1  ID: 1

Read mode               : Secure
Utilize accurate stream : Yes
Defeat audio cache      : Yes
Make use of C2 pointers : No

Read offset correction                      : 6
Overread into Lead-In and Lead-Out          : No
Fill up missing offset samples with silence : Yes
Delete leading and trailing silent blocks   : No
Null samples used in CRC calculations       : Yes
Used interface                              : Native Win32 interface for Win NT & 2000

Used output format : Internal WAV Routines
Sample format      : 44.100 Hz; 16 Bit; Stereo


TOC of the extracted CD

     Track |   Start  |  Length  | Start sector | End sector 
    ---------------------------------------------------------
        1  |  0:00.00 |  1:57.18 |         0    |     8792   
        2  |  1:57.18 |  2:25.01 |      8793    |    19668   
        3  |  4:22.19 |  4:36.07 |     19669    |    40375   
        4  |  8:58.26 |  4:02.54 |     40376    |    58579   
        5  | 13:01.05 |  4:16.33 |     58580    |    77812   
        6  | 17:17.38 |  6:50.69 |     77813    |   108631   
        7  | 24:08.32 |  2:57.36 |    108632    |   121942   
        8  | 27:05.68 |  2:36.04 |    121943    |   133646   
        9  | 29:41.72 |  3:36.50 |    133647    |   149896   
       10  | 33:18.47 |  5:20.25 |    149897    |   173921   
       11  | 38:38.72 |  5:20.60 |    173922    |   197981   
       12  | 43:59.57 |  7:07.69 |    197982    |   230075   
       13  | 51:07.51 |  4:19.44 |    230076    |   249544   
       14  | 55:27.20 |  3:40.19 |    249545    |   266063   


Range status and errors

Selected range

     Filename C:\Climax Blues Band\2019 The Albums 1969-1972 (5CD Box Set Esoteric Records)\1970 A Lot Of Bottle\Climax Chicago Blues Band - A Lot Of Bottle.wav

     Peak level 99.4 %
     Extraction speed 7.4 X
     Range quality 100.0 %
     Test CRC FDEF2155
     Copy CRC FDEF2155
     Copy OK

No errors occurred

 
AccurateRip summary
 
Track  1  not present in database
Track  2  not present in database
Track  3  not present in database
Track  4  not present in database
Track  5  not present in database
Track  6  not present in database
Track  7  not present in database
Track  8  not present in database
Track  9  not present in database
Track 10  not present in database
Track 11  not present in database
Track 12  not present in database
Track 13  not present in database
Track 14  not present in database
 
None of the tracks are present in the AccurateRip database

End of status report

---- CUETools DB Plugin V2.1.6

[CTDB TOCID: aRLWANS_fxWN21COcpetOVxU3.E-] found
Submit result: aRLWANS_fxWN21COcpetOVxU3.E- has been confirmed
Track | CTDB Status
  1   | (2/2) Accurately ripped
  2   | (2/2) Accurately ripped
  3   | (2/2) Accurately ripped
  4   | (2/2) Accurately ripped
  5   | (2/2) Accurately ripped
  6   | (2/2) Accurately ripped
  7   | (2/2) Accurately ripped
  8   | (2/2) Accurately ripped
  9   | (2/2) Accurately ripped
 10   | (2/2) Accurately ripped
 11   | (2/2) Accurately ripped
 12   | (2/2) Accurately ripped
 13   | (2/2) Accurately ripped
 14   | (2/2) Accurately ripped


==== Log checksum F3842E6AD2DCDA6DA3486A4A0B6207194DC4DF964E53D89244E111DD77A2051C ====



Create a new paste based on this one


Comments: