[ create a new paste ] login | about

Link: http://codepad.org/j0LgBoqk    [ raw code | fork ]

Plain Text, pasted on May 8:
foobar2000 1.4.1 / Dynamic Range Meter 1.1.1
log date: 2019-05-07 23:17:22

--------------------------------------------------------------------------------
Analyzed: MILES DAVIS / BIG FUN
--------------------------------------------------------------------------------

DR         Peak         RMS     Duration Track
--------------------------------------------------------------------------------
DR11      -1.30 dB   -15.11 dB     27:26 01-Great Expectations
DR13      -0.49 dB   -16.16 dB     21:35 02-Ife
DR11      -1.09 dB   -15.94 dB     18:58 03-Recollections
DR8       -1.62 dB   -13.85 dB      5:55 04-Trevere
--------------------------------------------------------------------------------

Number of tracks:  4
Official DR value: DR11

Samplerate:        88200 Hz
Channels:          2
Bits per sample:   24
Bitrate:           2760 kbps
Codec:             FLAC
================================================================================

foobar2000 1.4.1 / Dynamic Range Meter 1.1.1
log date: 2019-05-07 23:18:21

--------------------------------------------------------------------------------
Analyzed: MILES DAVIS / BIG FUN
--------------------------------------------------------------------------------

DR         Peak         RMS     Duration Track
--------------------------------------------------------------------------------
DR12      -0.08 dB   -14.98 dB     28:29 01-Go Ahead John
DR12      -0.01 dB   -15.61 dB     21:21 02-Lonely Fire
DR13      -0.68 dB   -16.65 dB      9:11 03-The Little Blue Frog
DR8       -1.31 dB   -13.61 dB      9:40 04-Yaphet
--------------------------------------------------------------------------------

Number of tracks:  4
Official DR value: DR11

Samplerate:        88200 Hz
Channels:          2
Bits per sample:   24
Bitrate:           2729 kbps
Codec:             FLAC
================================================================================




Create a new paste based on this one


Comments: