[ create a new paste ] login | about

Link: http://codepad.org/j1PnpHTY    [ raw code | fork ]

Plain Text, pasted on Apr 20:
foobar2000 1.3.17 / Dynamic Range Meter 1.1.1
log date: 2018-04-19 15:12:35

--------------------------------------------------------------------------------
Analyzed: ISAO TOMITA / SYMPHONY IHATOV
--------------------------------------------------------------------------------

DR         Peak         RMS     Duration Track
--------------------------------------------------------------------------------
DR8       -5.43 dB   -27.10 dB      2:45 01-SYMPHONY IHATOV:1.Iwatesan_no_Ohwashi<Taneyamagahara_no_Bokka>
DR8       -4.90 dB   -23.47 dB      4:06 02-SYMPHONY IHATOV:2.Kenbai/Hoshimeguri_no_Uta
DR10      -5.18 dB   -27.03 dB      5:59 03-SYMPHONY IHATOV:3.Chuumon_no_Ooi_Ryoriten
DR9       -5.12 dB   -25.40 dB      4:33 04-SYMPHONY IHATOV:4.Kaze_no_Matasaburou
DR9       -5.05 dB   -26.85 dB      8:51 05-SYMPHONY IHATOV:5.Gingatetsudou_no_Yoru
DR10      -5.57 dB   -30.67 dB      5:08 06-SYMPHONY IHATOV:6.Ame_nimo_Makezu
DR10      -5.59 dB   -27.44 dB      4:13 07-SYMPHONY IHATOV:7.Iwatesan_no_Oowashi<Taneyamagahara_no_Bokka>
DR8       -4.97 dB   -23.85 dB      3:42 08-Ribon_no_Kishi
DR8       -5.06 dB   -23.30 dB      3:19 09-Aoi_Chikyu_wa_Darenomono
--------------------------------------------------------------------------------

Number of tracks:  9
Official DR value: DR9

Samplerate:        2822400 Hz / PCM Samplerate: 176400 Hz
Channels:          6
Bits per sample:   1
Bitrate:           16934 kbps
Codec:             DST64
================================================================================

--------------------------------------------------------------------------------
Analyzed: ISAO TOMITA / SYMPHONY IHATOV
--------------------------------------------------------------------------------

DR         Peak         RMS     Duration Track
--------------------------------------------------------------------------------
DR12      -5.73 dB   -24.12 dB      2:45 01-SYMPHONY IHATOV:1.Iwatesan_no_Ohwashi<Taneyamagahara_no_Bokka>
DR11      -4.96 dB   -20.39 dB      4:06 02-SYMPHONY IHATOV:2.Kenbai/Hoshimeguri_no_Uta
DR15      -5.31 dB   -24.08 dB      6:00 03-SYMPHONY IHATOV:3.Chuumon_no_Ooi_Ryoriten
DR12      -5.38 dB   -22.22 dB      4:32 04-SYMPHONY IHATOV:4.Kaze_no_Matasaburou
DR14      -5.16 dB   -23.69 dB      8:52 05-SYMPHONY IHATOV:5.Gingatetsudou_no_Yoru
DR15      -6.52 dB   -27.73 dB      5:08 06-SYMPHONY IHATOV:6.Ame_nimo_Makezu
DR14      -5.74 dB   -24.65 dB      4:13 07-SYMPHONY IHATOV:7.Iwatesan_no_Oowashi<Taneyamagahara_no_Bokka>
DR11      -5.16 dB   -20.94 dB      3:42 08-Ribon_no_Kishi
DR10      -5.05 dB   -19.85 dB      3:19 09-Aoi_Chikyu_wa_Darenomono
--------------------------------------------------------------------------------

Number of tracks:  9
Official DR value: DR13

Samplerate:        2822400 Hz / PCM Samplerate: 176400 Hz
Channels:          2
Bits per sample:   1
Bitrate:           5645 kbps
Codec:             DST64
================================================================================




Create a new paste based on this one


Comments: