[ create a new paste ] login | about

Link: http://codepad.org/j3KNXcdk    [ raw code | fork ]

Plain Text, pasted on Nov 24:
Exact Audio Copy V1.0 beta 2 from 29. April 2011

EAC extraction logfile from 14. June 2014, 10:15

The Who / Quadrophenia Live in London CD 2

Used drive  : Optiarc DVD RW AD-7561S   Adapter: 1  ID: 0

Read mode               : Secure
Utilize accurate stream : Yes
Defeat audio cache      : Yes
Make use of C2 pointers : No

Read offset correction                      : 6
Overread into Lead-In and Lead-Out          : No
Fill up missing offset samples with silence : Yes
Delete leading and trailing silent blocks   : No
Null samples used in CRC calculations       : Yes
Used interface                              : Native Win32 interface for Win NT & 2000
Gap handling                                : Appended to previous track

Used output format              : User Defined Encoder
Selected bitrate                : 256 kBit/s
Quality                         : High
Add ID3 tag                     : No
Command line compressor         : C:\Program Files\Exact Audio Copy\Flac\flac.exe
Additional command line options : -8 -V -T "ARTIST=%artist%" -T "TITLE=%title%" -T "ALBUM=%albumtitle%" -T "DATE=%year%" -T "TRACKNUMBER=%tracknr%" -T "TOTALTRACKS=%numtracks%" -T "GENRE=%genre%" -T "ALBUMARTIST=%albumartist%" -T "ALBUM ARTIST=%albumartist%


TOC of the extracted CD

     Track |   Start  |  Length  | Start sector | End sector 
    ---------------------------------------------------------
        1  |  0:00.00 |  5:40.61 |         0    |    25560   
        2  |  5:40.61 |  7:20.71 |     25561    |    58631   
        3  | 13:01.57 |  5:10.51 |     58632    |    81932   
        4  | 18:12.33 |  8:08.71 |     81933    |   118603   
        5  | 26:21.29 |  6:51.19 |    118604    |   149447   
        6  | 33:12.48 |  7:21.58 |    149448    |   182580   
        7  | 40:34.31 |  6:26.51 |    182581    |   211581   
        8  | 47:01.07 |  5:35.37 |    211582    |   236743   
        9  | 52:36.44 |  2:53.07 |    236744    |   249725   
       10  | 55:29.51 |  5:27.24 |    249726    |   274274   
       11  | 60:57.00 |  9:06.19 |    274275    |   315243   
       12  | 70:03.19 |  4:00.10 |    315244    |   333253   


Track  1

     Filename C:\torrent\The Who - Quadrophenia Live In London (2014) [FLAC] {2 CD plus DVD9 NTSC}\Disc 2of2\01 - Sea and Sound.wav

     Pre-gap length  0:00:02.00

     Peak level 97.7 %
     Extraction speed 2.0 X
     Track quality 100.0 %
     Test CRC E0575C30
     Copy CRC E0575C30
     Track not present in AccurateRip database
     Copy OK

Track  2

     Filename C:\torrent\The Who - Quadrophenia Live In London (2014) [FLAC] {2 CD plus DVD9 NTSC}\Disc 2of2\02 - Drowned.wav

     Peak level 97.7 %
     Extraction speed 2.4 X
     Track quality 100.0 %
     Test CRC 797A0E37
     Copy CRC 797A0E37
     Track not present in AccurateRip database
     Copy OK

Track  3

     Filename C:\torrent\The Who - Quadrophenia Live In London (2014) [FLAC] {2 CD plus DVD9 NTSC}\Disc 2of2\03 - Bell Boy.wav

     Peak level 96.3 %
     Extraction speed 2.6 X
     Track quality 100.0 %
     Test CRC 48710F2E
     Copy CRC 48710F2E
     Track not present in AccurateRip database
     Copy OK

Track  4

     Filename C:\torrent\The Who - Quadrophenia Live In London (2014) [FLAC] {2 CD plus DVD9 NTSC}\Disc 2of2\04 - Doctor Jimmy.wav

     Peak level 97.7 %
     Extraction speed 2.9 X
     Track quality 100.0 %
     Test CRC 3A0F69CC
     Copy CRC 3A0F69CC
     Track not present in AccurateRip database
     Copy OK

Track  5

     Filename C:\torrent\The Who - Quadrophenia Live In London (2014) [FLAC] {2 CD plus DVD9 NTSC}\Disc 2of2\05 - The Rock.wav

     Peak level 97.7 %
     Extraction speed 3.1 X
     Track quality 100.0 %
     Test CRC 5A22DF6E
     Copy CRC 5A22DF6E
     Track not present in AccurateRip database
     Copy OK

Track  6

     Filename C:\torrent\The Who - Quadrophenia Live In London (2014) [FLAC] {2 CD plus DVD9 NTSC}\Disc 2of2\06 - Love Reign O'er Me.wav

     Peak level 97.7 %
     Extraction speed 3.3 X
     Track quality 100.0 %
     Test CRC 588F2C5A
     Copy CRC 588F2C5A
     Track not present in AccurateRip database
     Copy OK

Track  7

     Filename C:\torrent\The Who - Quadrophenia Live In London (2014) [FLAC] {2 CD plus DVD9 NTSC}\Disc 2of2\07 - Who are You.wav

     Peak level 97.7 %
     Extraction speed 3.5 X
     Track quality 100.0 %
     Test CRC 778EDFBD
     Copy CRC 778EDFBD
     Track not present in AccurateRip database
     Copy OK

Track  8

     Filename C:\torrent\The Who - Quadrophenia Live In London (2014) [FLAC] {2 CD plus DVD9 NTSC}\Disc 2of2\08 - You Better You Bet.wav

     Peak level 97.7 %
     Extraction speed 3.6 X
     Track quality 100.0 %
     Test CRC DFB45126
     Copy CRC DFB45126
     Track not present in AccurateRip database
     Copy OK

Track  9

     Filename C:\torrent\The Who - Quadrophenia Live In London (2014) [FLAC] {2 CD plus DVD9 NTSC}\Disc 2of2\09 - Pinball Wizard.wav

     Peak level 97.7 %
     Extraction speed 3.4 X
     Track quality 100.0 %
     Test CRC B36DE329
     Copy CRC B36DE329
     Track not present in AccurateRip database
     Copy OK

Track 10

     Filename C:\torrent\The Who - Quadrophenia Live In London (2014) [FLAC] {2 CD plus DVD9 NTSC}\Disc 2of2\10 - Baba O'Riley.wav

     Peak level 97.7 %
     Extraction speed 3.5 X
     Track quality 99.9 %
     Test CRC 17E335CF
     Copy CRC 17E335CF
     Track not present in AccurateRip database
     Copy OK

Track 11

     Filename C:\torrent\The Who - Quadrophenia Live In London (2014) [FLAC] {2 CD plus DVD9 NTSC}\Disc 2of2\11 - Won't Get Fooled Again.wav

     Peak level 97.7 %
     Extraction speed 4.1 X
     Track quality 100.0 %
     Test CRC B397DA05
     Copy CRC B397DA05
     Track not present in AccurateRip database
     Copy OK

Track 12

     Filename C:\torrent\The Who - Quadrophenia Live In London (2014) [FLAC] {2 CD plus DVD9 NTSC}\Disc 2of2\12 - Tea and Theatre.wav

     Peak level 97.7 %
     Extraction speed 4.0 X
     Track quality 100.0 %
     Test CRC ED247523
     Copy CRC ED247523
     Track not present in AccurateRip database
     Copy OK


None of the tracks are present in the AccurateRip database

No errors occurred

End of status report

==== Log checksum A631BF8B4F33DD812989D8A0B8989AC032DDEF9CD6814E349780914DA7CC3D45 ====



Create a new paste based on this one


Comments: