[ create a new paste ] login | about

Link: http://codepad.org/j7shF2JB    [ raw code | fork ]

Plain Text, pasted on Mar 9:
Exact Audio Copy V1.3 from 2. September 2016

Отчёт EAC об извлечении, выполненном 10. ноября 2017, 19:01

Various Artists / Rock Tributes - Cheap Trick - CD 3

Дисковод: PLEXTOR DVDR   PX-L890SA   Adapter: 1  ID: 0

Режим чтения                 : Достоверность
Использование точного потока : Да
Отключение кэша аудио        : Да
Использование указателей C2  : Нет

Коррекция смещения при чтении                     : 6
Способность читать области Lead-in и Lead-out     : Нет
Заполнение пропущенных сэмплов тишиной            : Да
Удаление блоков с тишиной в начале и конце        : Нет
При вычислениях CRC использовались нулевые сэмплы : Да
Интерфейс                                         : Встроенный Win32-интерфейс для Win NT/2000
Обработка зазоров                                 : Добавлено к предыдущему треку

Выходной формат          : Пользовательский кодировщик
Выбранный битрейт        : 896 kBit/s
Качество                 : Высокий
Добавление ID3-тега      : Нет
Утилита сжатия           : C:\Program Files\Exact Audio Copy\Flac\flac.exe
Дополнительные параметры : -V -8 -T "Genre=%genre%" -T "Artist=%artist%" -T "Title=%title%" -T "Album=%albumtitle%" -T "Date=%year%" -T "Tracknumber=%tracknr%" -T "Comment=%comment%" %source%


TOC извлечённого CD

     Трек |   Старт  | Длительность | Начальный сектор | Конечный сектор 
    ---------------------------------------------------------------------
       1  |  0:00.00 |    4:58.22   |           0      |      22371      
       2  |  4:58.22 |    3:36.36   |       22372      |      38607      
       3  |  8:34.58 |    4:59.36   |       38608      |      61068      
       4  | 13:34.19 |    4:18.13   |       61069      |      80431      
       5  | 17:52.32 |    4:30.62   |       80432      |     100743      
       6  | 22:23.19 |    4:27.17   |      100744      |     120785      
       7  | 26:50.36 |    4:49.40   |      120786      |     142500      
       8  | 31:40.01 |    4:59.49   |      142501      |     164974      
       9  | 36:39.50 |    4:59.26   |      164975      |     187425      
      10  | 41:39.01 |    4:58.56   |      187426      |     209831      
      11  | 46:37.57 |    3:07.14   |      209832      |     223870      


Трек  1

     Имя файла E:\Classic Rock & Hard Rock\VA - Rock Tributes 5 CD Box 2006\CD 3 - Rock Tributes - Cheap Trick\01 Jani Lane - I Want You to Want Me (Mission UK remix).wav

     Длина предзазора  0:00:02.00

     Пиковый уровень 98.6 %
     Скорость извлечения 4.6 X
     Качество трека 100.0 %
     CRC теста 3E189A96
     CRC копии 3E189A96
     Точное извлечение (достоверность 1)  [7499AA20]  (AR v2)
     Копирование... OK

Трек  2

     Имя файла E:\Classic Rock & Hard Rock\VA - Rock Tributes 5 CD Box 2006\CD 3 - Rock Tributes - Cheap Trick\02 Phil Lewis - Hello There (KMFDM remix).wav

     Пиковый уровень 98.8 %
     Скорость извлечения 3.9 X
     Качество трека 99.9 %
     CRC теста 13B17899
     CRC копии 13B17899
     Точное извлечение (достоверность 1)  [58E86FBE]  (AR v2)
     Копирование... OK

Трек  3

     Имя файла E:\Classic Rock & Hard Rock\VA - Rock Tributes 5 CD Box 2006\CD 3 - Rock Tributes - Cheap Trick\03 John Easdale - Auf Wiedesen (Rock the House remix).wav

     Пиковый уровень 93.9 %
     Скорость извлечения 4.6 X
     Качество трека 100.0 %
     CRC теста 31B0C67D
     CRC копии 31B0C67D
     Точное извлечение (достоверность 1)  [650C2695]  (AR v2)
     Копирование... OK

Трек  4

     Имя файла E:\Classic Rock & Hard Rock\VA - Rock Tributes 5 CD Box 2006\CD 3 - Rock Tributes - Cheap Trick\04 Gilby Clarke - Southern Girls (Cheapest Trick remix).wav

     Пиковый уровень 93.9 %
     Скорость извлечения 4.6 X
     Качество трека 100.0 %
     CRC теста 32654A7D
     CRC копии 32654A7D
     Точное извлечение (достоверность 1)  [40016CD1]  (AR v2)
     Копирование... OK

Трек  5

     Имя файла E:\Classic Rock & Hard Rock\VA - Rock Tributes 5 CD Box 2006\CD 3 - Rock Tributes - Cheap Trick\05 Joe Leste - He's a Whore (Sigue Sigue Sputnik remix).wav

     Пиковый уровень 90.5 %
     Скорость извлечения 4.6 X
     Качество трека 100.0 %
     CRC теста E4DEA9A1
     CRC копии E4DEA9A1
     Точное извлечение (достоверность 1)  [B87CF263]  (AR v2)
     Копирование... OK

Трек  6

     Имя файла E:\Classic Rock & Hard Rock\VA - Rock Tributes 5 CD Box 2006\CD 3 - Rock Tributes - Cheap Trick\06 Ryan Roxie - Surrender (Spahn Ranch remix).wav

     Пиковый уровень 98.8 %
     Скорость извлечения 4.2 X
     Качество трека 99.9 %
     CRC теста 48C9B7A1
     CRC копии 48C9B7A1
     Точное извлечение (достоверность 1)  [8EA2035A]  (AR v2)
     Копирование... OK

Трек  7

     Имя файла E:\Classic Rock & Hard Rock\VA - Rock Tributes 5 CD Box 2006\CD 3 - Rock Tributes - Cheap Trick\07 Taime Downe - She's Tight (Razed in Black remix).wav

     Пиковый уровень 98.8 %
     Скорость извлечения 4.7 X
     Качество трека 100.0 %
     CRC теста 829C4BE6
     CRC копии 829C4BE6
     Точное извлечение (достоверность 1)  [6E1100FD]  (AR v2)
     Копирование... OK

Трек  8

     Имя файла E:\Classic Rock & Hard Rock\VA - Rock Tributes 5 CD Box 2006\CD 3 - Rock Tributes - Cheap Trick\08 John Corabi - California Man (Rosetta Stone remix).wav

     Пиковый уровень 98.7 %
     Скорость извлечения 4.6 X
     Качество трека 100.0 %
     CRC теста 6D779959
     CRC копии 6D779959
     Точное извлечение (достоверность 1)  [F69EF518]  (AR v2)
     Копирование... OK

Трек  9

     Имя файла E:\Classic Rock & Hard Rock\VA - Rock Tributes 5 CD Box 2006\CD 3 - Rock Tributes - Cheap Trick\09 Jizzy Pearl - On Top of the World (Pig remix).wav

     Пиковый уровень 93.9 %
     Скорость извлечения 4.7 X
     Качество трека 100.0 %
     CRC теста DE70A2FE
     CRC копии DE70A2FE
     Точное извлечение (достоверность 1)  [CA8B2EF5]  (AR v2)
     Копирование... OK

Трек 10

     Имя файла E:\Classic Rock & Hard Rock\VA - Rock Tributes 5 CD Box 2006\CD 3 - Rock Tributes - Cheap Trick\10 Kelly Hansen - Dream Police (Razed in Black vs. Transmutator remix).wav

     Пиковый уровень 93.9 %
     Скорость извлечения 4.7 X
     Качество трека 100.0 %
     CRC теста 2DA4DEE0
     CRC копии 2DA4DEE0
     Точное извлечение (достоверность 1)  [9CD539E8]  (AR v2)
     Копирование... OK

Трек 11

     Имя файла E:\Classic Rock & Hard Rock\VA - Rock Tributes 5 CD Box 2006\CD 3 - Rock Tributes - Cheap Trick\11 Marq Torien - Big Eyes (Remixed by Fred Coury).wav

     Пиковый уровень 97.5 %
     Скорость извлечения 4.3 X
     Качество трека 100.0 %
     CRC теста 0CB87D58
     CRC копии 0CB87D58
     Точное извлечение (достоверность 1)  [CB115803]  (AR v2)
     Копирование... OK


Все треки извлечены точно

Ошибок не произошло

Конец отчёта

---- CUETools DB Plugin V2.1.6

[CTDB TOCID: G10wRoVuHdwIK27z4sg6ByOU5D0-] found
Submit result: G10wRoVuHdwIK27z4sg6ByOU5D0- has been confirmed
Track | CTDB Status
  1   | (1/1) Accurately ripped
  2   | (1/1) Accurately ripped
  3   | (1/1) Accurately ripped
  4   | (1/1) Accurately ripped
  5   | (1/1) Accurately ripped
  6   | (1/1) Accurately ripped
  7   | (1/1) Accurately ripped
  8   | (1/1) Accurately ripped
  9   | (1/1) Accurately ripped
 10   | (1/1) Accurately ripped
 11   | (1/1) Accurately ripped


==== Контрольная сумма отчёта 44EB0D81F644A82BE9D91C72FCB2709A7BC7E1CC928EC1A705C83C65E367DB5A ====



Create a new paste based on this one


Comments: