[ create a new paste ] login | about

Link: http://codepad.org/jAf5BpQO    [ raw code | fork ]

Plain Text, pasted on Jul 24:
foobar2000 1.3.17 / Dynamic Range Meter 1.1.1
log date: 2018-07-24 11:50:38

--------------------------------------------------------------------------------
Analyzed: Sarah Vaughan / Sarah Vaughan
--------------------------------------------------------------------------------

DR         Peak         RMS     Duration Track
--------------------------------------------------------------------------------
DR12      -2.29 dB   -16.57 dB      3:58 01-Lullaby Of Birdland
DR13      -1.87 dB   -19.45 dB      6:19 02-April In Paris
DR11      -1.22 dB   -15.83 dB      4:10 03-He's My Guy
DR13      -1.82 dB   -18.22 dB      5:48 04-Jim
DR11      -1.61 dB   -15.38 dB      4:41 05-You're Not The Kind
DR10      -2.36 dB   -18.37 dB      4:48 06-Embraceable You
DR11      -2.97 dB   -18.43 dB      5:08 07-I'm Glad There Is You
DR10      -2.59 dB   -16.85 dB      5:43 08-September Song
DR10      -3.25 dB   -16.59 dB      4:53 09-It's Crazy
DR10      -3.57 dB   -17.23 dB      3:59 10-Lullaby Of Birdland (Alternate Take)
--------------------------------------------------------------------------------

Number of tracks:  10
Official DR value: DR11

Samplerate:        2822400 Hz / PCM Samplerate: 176400 Hz
Channels:          2
Bits per sample:   1
Bitrate:           5645 kbps
Codec:             DSD64
================================================================================




Create a new paste based on this one


Comments: