[ create a new paste ] login | about

Link: http://codepad.org/jCdNpWW7    [ raw code | fork ]

Plain Text, pasted on Oct 26:
foobar2000 1.6 / Dynamic Range Meter 1.1.1
log date: 2020-10-24 19:53:45

--------------------------------------------------------------------------------
Analyzed: The Guess Who  / American Woman & Share the land 
--------------------------------------------------------------------------------

DR         Peak         RMS     Duration Track
--------------------------------------------------------------------------------
DR8       -9.66 dB   -26.73 dB      5:06 01-American Woman 
DR7       -8.86 dB   -24.47 dB      3:44 02-No Time 
DR9      -12.36 dB   -30.65 dB      5:08 03-Talisman 
DR8       -8.40 dB   -24.82 dB      4:58 04-No Sugar Tonight / New Mother Nature
DR7       -8.37 dB   -23.82 dB      2:59 05-969 The Oldest Man
DR8       -8.17 dB   -24.17 dB      3:01 06-When Friends Fall Out 
DR7       -7.82 dB   -24.47 dB      3:25 07-8:15
DR7       -7.76 dB   -23.97 dB      5:19 08-Proper Stranger 
DR7       -9.47 dB   -25.23 dB      6:13 09-Humpty's Blues / American Woman 
DR7       -7.35 dB   -22.15 dB      2:56 10-Bus Rider 
DR7       -7.65 dB   -23.82 dB      3:55 11-Do You Miss Me Darlin 
DR7       -7.85 dB   -23.46 dB      3:26 12-Hand Me Down World 
DR8       -7.92 dB   -24.07 dB      2:40 13-Moan for You Joe 
DR7       -7.96 dB   -22.50 dB      3:53 14-Share the Land 
DR7       -7.24 dB   -22.64 dB      4:11 15-Hang On to Your Life 
DR8       -8.36 dB   -25.83 dB      3:56 16-Coming Down Off the Money Bag / Song Of The Dog 
DR7       -7.54 dB   -22.75 dB      8:58 17-Three More Days 
--------------------------------------------------------------------------------

Number of tracks:  17
Official DR value: DR7

Samplerate:        2822400 Hz / PCM Samplerate: 176400 Hz
Channels:          6
Bits per sample:   1
Bitrate:           16934 kbps
Codec:             DST64
================================================================================

--------------------------------------------------------------------------------
Analyzed: The Guess Who  / American Woman & Share the land 
--------------------------------------------------------------------------------

DR         Peak         RMS     Duration Track
--------------------------------------------------------------------------------
DR12      -6.37 dB   -21.55 dB      5:06 01-American Woman 
DR10      -7.93 dB   -19.87 dB      3:46 02-No Time 
DR12      -9.06 dB   -23.40 dB      5:08 03-Talisman 
DR11      -7.60 dB   -21.45 dB      4:45 04-No Sugar Tonight / New Mother Nature
DR12      -7.98 dB   -21.64 dB      2:57 05-969 The Oldest Man
DR12      -7.13 dB   -20.87 dB      2:59 06-When Friends Fall Out 
DR11      -6.28 dB   -20.37 dB      3:26 07-8:15
DR11      -6.97 dB   -19.90 dB      4:47 08-Proper Stranger 
DR10      -7.60 dB   -20.24 dB      6:11 09-Humpty's Blues / American Woman 
DR9       -6.11 dB   -17.91 dB      2:58 10-Bus Rider 
DR10      -6.24 dB   -18.49 dB      3:57 11-Do You Miss Me Darlin 
DR11      -6.37 dB   -19.44 dB      3:26 12-Hand Me Down World 
DR11      -6.64 dB   -19.65 dB      2:41 13-Moan for You Joe 
DR9       -6.86 dB   -17.60 dB      3:54 14-Share the Land 
DR9       -5.97 dB   -18.13 dB      4:10 15-Hang On to Your Life 
DR11      -6.54 dB   -20.36 dB      3:56 16-Coming Down Off the Money Bag / Song Of The Dog 
DR10      -6.11 dB   -19.85 dB      8:58 17-Three More Days 
--------------------------------------------------------------------------------

Number of tracks:  17
Official DR value: DR11

Samplerate:        2822400 Hz / PCM Samplerate: 176400 Hz
Channels:          2
Bits per sample:   1
Bitrate:           5645 kbps
Codec:             DST64
================================================================================




Create a new paste based on this one


Comments: