[ create a new paste ] login | about

Link: http://codepad.org/jCefhl0n    [ raw code | fork ]

Plain Text, pasted on Nov 1:
1
2
3
4
5
6
7
8
9
10
11
12
13
14
15
16
17
18
19
20
21
22
23
24
25
26
27
28
29
30
31
32
33
34
35
36
37
38
39
40
41
42
43
44
45
46
47
48
49
50
51
52
53
54
55
56
57
58
59
60
61
62
63
64
65
66
67
68
69
70
71
72
73
74
75
76
77
78
79
80
81
82
83
84
85
86
87
88
89
90
91
92
93
94
95
96
97
98
99
100
101
102
103
104
105
106
107
108
109
110
111
112
113
114
115
116
117
118
119
120
121
122
123
124
125
126
127
128
129
130
131
132
133
134
135
136
137
138
139
140
141
142
143
144
145
146
147
148
149
150
151
152
153
154
155
156
157
158
159
160
161
162
163
164
165
166
167
168
169
170
171
172
173
174
175
176
177
178
179
180
181
182
183
184
185
186
187
188
189
190
191
192
193
194
195
196
197
198
199
200
201
202
203
204
205
206
207
208
209
210
211
212
213
214
215
216
217
218
219
220
221
222
223
224
225
226
227
228
229
230
231
232
233
234
235
236
237
238
239
240
241
242
243
244
245
246
247
248
249
250
251
252
253
254
255
256
257
258
259
260
261
262
263
264
265
266
267
268
269
270
271
272
273
274
275
276
277
278
279
280
281
282
283
284
285
286
287
288
289
290
291
292
293
294
295
296
297
298
299
300
301
302
303
304
305
306
307
308
309
310
311
312
313
314
315
316
317
318
319
320
321
322
323
324
325
326
327
328
329
330
331
332
333
334
335
336
337
338
339
340
341
342
343
344
345
346
347
348
349
350
351
352
353
354
355
356
357
358
359
360
361
362
363
364
365
366
367
368
369
370
371
372
373
374
375
376
377
378
379
380
381
382
383
384
385
386
387
388
389
390
391
392
393
394
395
396
397
398
399
400
401
402
403
404
405
406
407
408
409
410
411
412
413
414
415
416
417
418
419
420
421
422
423
424
425
426
427
428
429
430
431
432
433
434
435
436
437
438
439
440
441
442
443
444
445
446
447
448
449
450
451
452
453
454
455
456
457
458
459
460
461
462
463
464
465
466
467
468
469
470
471
472
473
474
475
476
477
478
479
480
481
482
483
484
485
486
487
488
489
490
491
492
493
494
495
496
497
498
499
500
501
502
503
504
505
506
507
508
509
510
511
512
513
514
515
516
517
518
519
520
521
522
523
524
525
526
527
528
529
530
531
532
533
534
535
536
537
538
539
540
541
542
543
544
545
546
547
548
549
550
551
552
553
554
555
556
557
558
559
560
561
562
563
564
565
566
567
568
569
570
571
572
573
574
575
576
577
578
579
580
581
582
583
584
585
586
587
588
589
590
591
592
593
594
595
596
597
598
599
600
601
602
603
604
605
606
607
608
609
610
611
612
613
614
615
616
617
618
619
620
621
622
623
624
625
626
627
628
629
630
631
632
633
634
635
636
637
638
639
640
641
642
643
644
645
646
647
648
649
650
651
652
653
654
655
656
657
658
659
660
661
662
663
664
665
666
667
668
669
670
671
672
673
674
675
676
677
678
679
680
681
682
683
684
685
686
687
688
689
690
691
692
693
694
695
696
697
698
699
700
701
702
703
704
CD1
->
Exact Audio Copy V1.3 from 2. September 2016

EAC extraction logfile from 27. October 2019, 14:58

Whitesnake / Slip Of The Tongue

Used drive  : PLEXTOR BD-R  PX-B950SA   Adapter: 1  ID: 1

Read mode               : Secure
Utilize accurate stream : Yes
Defeat audio cache      : Yes
Make use of C2 pointers : No

Read offset correction                      : 6
Overread into Lead-In and Lead-Out          : No
Fill up missing offset samples with silence : Yes
Delete leading and trailing silent blocks   : No
Null samples used in CRC calculations       : Yes
Used interface                              : Native Win32 interface for Win NT & 2000

Used output format : Internal WAV Routines
Sample format      : 44.100 Hz; 16 Bit; Stereo


TOC of the extracted CD

     Track |   Start  |  Length  | Start sector | End sector 
    ---------------------------------------------------------
        1  |  0:00.00 |  5:21.42 |         0    |    24116   
        2  |  5:21.42 |  4:46.01 |     24117    |    45567   
        3  | 10:07.43 |  3:27.60 |     45568    |    61152   
        4  | 13:35.28 |  4:10.37 |     61153    |    79939   
        5  | 17:45.65 |  4:19.67 |     79940    |    99431   
        6  | 22:05.57 |  5:16.36 |     99432    |   123167   
        7  | 27:22.18 |  5:58.54 |    123168    |   150071   
        8  | 33:20.72 |  5:00.58 |    150072    |   172629   
        9  | 38:21.55 |  3:57.57 |    172630    |   190461   
       10  | 42:19.37 |  4:10.23 |    190462    |   209234   
       11  | 46:29.60 |  4:33.53 |    209235    |   229762   
       12  | 51:03.38 |  4:06.65 |    229763    |   248277   
       13  | 55:10.28 |  4:18.15 |    248278    |   267642   
       14  | 59:28.43 |  4:52.62 |    267643    |   289604   
       15  | 64:21.30 |  3:34.39 |    289605    |   305693   
       16  | 67:55.69 |  5:31.02 |    305694    |   330520   
       17  | 73:26.71 |  4:11.09 |    330521    |   349354   


Range status and errors

Selected range

     Filename C:\Whitesnake\1989 Slip Of The Tongue (7-Disc Box Set Rhino Records 2019)\CD1 Original 1989 Album (2019 Remaster)\Whitesnake - Slip Of The Tongue.wav

     Peak level 98.3 %
     Extraction speed 8.6 X
     Range quality 100.0 %
     Test CRC 67654D20
     Copy CRC 67654D20
     Copy OK

No errors occurred

 
AccurateRip summary
 
Track  1  not present in database
Track  2  not present in database
Track  3  not present in database
Track  4  not present in database
Track  5  not present in database
Track  6  not present in database
Track  7  not present in database
Track  8  not present in database
Track  9  not present in database
Track 10  not present in database
Track 11  not present in database
Track 12  not present in database
Track 13  not present in database
Track 14  not present in database
Track 15  not present in database
Track 16  not present in database
Track 17  not present in database
 
None of the tracks are present in the AccurateRip database

End of status report

---- CUETools DB Plugin V2.1.6

[CTDB TOCID: LRw7g8Uzp9FiJ6iOi3BaIj16rn4-] found
Submit result: LRw7g8Uzp9FiJ6iOi3BaIj16rn4- has been confirmed
Track | CTDB Status
  1   | (19/19) Accurately ripped
  2   | (19/19) Accurately ripped
  3   | (19/19) Accurately ripped
  4   | (19/19) Accurately ripped
  5   | (19/19) Accurately ripped
  6   | (19/19) Accurately ripped
  7   | (19/19) Accurately ripped
  8   | (19/19) Accurately ripped
  9   | (19/19) Accurately ripped
 10   | (19/19) Accurately ripped
 11   | (19/19) Accurately ripped
 12   | (19/19) Accurately ripped
 13   | (19/19) Accurately ripped
 14   | (19/19) Accurately ripped
 15   | (19/19) Accurately ripped
 16   | (19/19) Accurately ripped
 17   | (19/19) Accurately ripped


==== Log checksum 1E921829ECE72EF18AB902D57F6DBA807F494D19F74A8BB729941B85692921C2 ====
->
=========================================================================================================================================================
->
CD2
->
Exact Audio Copy V1.3 from 2. September 2016

EAC extraction logfile from 27. October 2019, 14:21

Whitesnake / The Wagging Tongue Edition

Used drive  : PLEXTOR BD-R  PX-B950SA   Adapter: 1  ID: 1

Read mode               : Secure
Utilize accurate stream : Yes
Defeat audio cache      : Yes
Make use of C2 pointers : No

Read offset correction                      : 6
Overread into Lead-In and Lead-Out          : No
Fill up missing offset samples with silence : Yes
Delete leading and trailing silent blocks   : No
Null samples used in CRC calculations       : Yes
Used interface                              : Native Win32 interface for Win NT & 2000

Used output format : Internal WAV Routines
Sample format      : 44.100 Hz; 16 Bit; Stereo


TOC of the extracted CD

     Track |   Start  |  Length  | Start sector | End sector 
    ---------------------------------------------------------
        1  |  0:00.00 |  1:23.69 |         0    |     6293   
        2  |  1:23.69 |  5:09.37 |      6294    |    29505   
        3  |  6:33.31 |  1:57.02 |     29506    |    38282   
        4  |  8:30.33 |  3:22.24 |     38283    |    53456   
        5  | 11:52.57 |  2:49.64 |     53457    |    66195   
        6  | 14:42.46 |  4:08.14 |     66196    |    84809   
        7  | 18:50.60 |  2:12.63 |     84810    |    94772   
        8  | 21:03.48 |  4:05.30 |     94773    |   113177   
        9  | 25:09.03 |  2:05.73 |    113178    |   122625   
       10  | 27:15.01 |  4:58.10 |    122626    |   144985   
       11  | 32:13.11 |  1:57.19 |    144986    |   153779   
       12  | 34:10.30 |  4:58.72 |    153780    |   176201   
       13  | 39:09.27 |  1:26.27 |    176202    |   182678   
       14  | 40:35.54 |  4:20.44 |    182679    |   202222   
       15  | 44:56.23 |  1:37.22 |    202223    |   209519   
       16  | 46:33.45 |  5:13.40 |    209520    |   233034   
       17  | 51:47.10 |  2:36.44 |    233035    |   244778   
       18  | 54:23.54 |  3:57.50 |    244779    |   262603   
       19  | 58:21.29 |  2:01.28 |    262604    |   271706   
       20  | 60:22.57 |  5:57.58 |    271707    |   298539   
       21  | 66:20.40 |  1:57.64 |    298540    |   307378   


Range status and errors

Selected range

     Filename C:\Whitesnake\1989 Slip Of The Tongue (7-Disc Box Set Rhino Records 2019)\CD2 The Wagging Tongue Edition (CD Debut)\Whitesnake - The Wagging Tongue Edition.wav

     Peak level 97.5 %
     Extraction speed 7.7 X
     Range quality 100.0 %
     Test CRC F70CB49C
     Copy CRC F70CB49C
     Copy OK

No errors occurred

 
AccurateRip summary
 
Track  1  not present in database
Track  2  not present in database
Track  3  not present in database
Track  4  not present in database
Track  5  not present in database
Track  6  not present in database
Track  7  not present in database
Track  8  not present in database
Track  9  not present in database
Track 10  not present in database
Track 11  not present in database
Track 12  not present in database
Track 13  not present in database
Track 14  not present in database
Track 15  not present in database
Track 16  not present in database
Track 17  not present in database
Track 18  not present in database
Track 19  not present in database
Track 20  not present in database
Track 21  not present in database
 
None of the tracks are present in the AccurateRip database

End of status report

---- CUETools DB Plugin V2.1.6

[CTDB TOCID: kH5o4fjqzyrmLM_W4jeqt893GLc-] found
Submit result: kH5o4fjqzyrmLM_W4jeqt893GLc- has been confirmed
Track | CTDB Status
  1   | (14/14) Accurately ripped
  2   | (14/14) Accurately ripped
  3   | (14/14) Accurately ripped
  4   | (14/14) Accurately ripped
  5   | (14/14) Accurately ripped
  6   | (14/14) Accurately ripped
  7   | (14/14) Accurately ripped
  8   | (14/14) Accurately ripped
  9   | (14/14) Accurately ripped
 10   | (14/14) Accurately ripped
 11   | (14/14) Accurately ripped
 12   | (14/14) Accurately ripped
 13   | (14/14) Accurately ripped
 14   | (14/14) Accurately ripped
 15   | (14/14) Accurately ripped
 16   | (14/14) Accurately ripped
 17   | (14/14) Accurately ripped
 18   | (14/14) Accurately ripped
 19   | (14/14) Accurately ripped
 20   | (14/14) Accurately ripped
 21   | (14/14) Accurately ripped


==== Log checksum 3C15F061FA998EAE15CDF0470827FB5A3867F702821F4A1FA13F2F9AB1E9A0DB ====
->
=========================================================================================================================================================
->
CD3
->
Exact Audio Copy V1.3 from 2. September 2016

EAC extraction logfile from 27. October 2019, 13:42

Whitesnake / Evolutions: Demos/Remixes/Re-Records

Used drive  : PLEXTOR BD-R  PX-B950SA   Adapter: 1  ID: 1

Read mode               : Secure
Utilize accurate stream : Yes
Defeat audio cache      : Yes
Make use of C2 pointers : No

Read offset correction                      : 6
Overread into Lead-In and Lead-Out          : No
Fill up missing offset samples with silence : Yes
Delete leading and trailing silent blocks   : No
Null samples used in CRC calculations       : Yes
Used interface                              : Native Win32 interface for Win NT & 2000

Used output format : Internal WAV Routines
Sample format      : 44.100 Hz; 16 Bit; Stereo


TOC of the extracted CD

     Track |   Start  |  Length  | Start sector | End sector 
    ---------------------------------------------------------
        1  |  0:00.00 |  6:58.29 |         0    |    31378   
        2  |  6:58.29 |  5:48.20 |     31379    |    57498   
        3  | 12:46.49 |  6:00.71 |     57499    |    84569   
        4  | 18:47.45 |  6:24.49 |     84570    |   113418   
        5  | 25:12.19 |  8:31.08 |    113419    |   151751   
        6  | 33:43.27 |  6:28.29 |    151752    |   180880   
        7  | 40:11.56 |  6:33.34 |    180881    |   210389   
        8  | 46:45.15 |  4:48.27 |    210390    |   232016   
        9  | 51:33.42 |  5:07.35 |    232017    |   255076   
       10  | 56:41.02 |  4:26.60 |    255077    |   275086   
       11  | 61:07.62 |  5:46.11 |    275087    |   301047   
       12  | 66:53.73 |  4:56.38 |    301048    |   323285   
       13  | 71:50.36 |  3:20.17 |    323286    |   338302   


Range status and errors

Selected range

     Filename C:\Whitesnake\1989 Slip Of The Tongue (7-Disc Box Set Rhino Records 2019)\CD3 Evolutions - Demos, Remixes, Re-Records\Whitesnake - Evolutions.wav

     Peak level 93.5 %
     Extraction speed 8.2 X
     Range quality 100.0 %
     Test CRC 525E7118
     Copy CRC 525E7118
     Copy OK

No errors occurred

 
AccurateRip summary
 
Track  1  not present in database
Track  2  not present in database
Track  3  not present in database
Track  4  not present in database
Track  5  not present in database
Track  6  not present in database
Track  7  not present in database
Track  8  not present in database
Track  9  not present in database
Track 10  not present in database
Track 11  not present in database
Track 12  not present in database
Track 13  not present in database
 
None of the tracks are present in the AccurateRip database

End of status report

---- CUETools DB Plugin V2.1.6

[CTDB TOCID: seDmAtqu7gBqznx5znNi9P4mr8g-] found
Submit result: seDmAtqu7gBqznx5znNi9P4mr8g- has been confirmed
Track | CTDB Status
  1   | (13/13) Accurately ripped
  2   | (13/13) Accurately ripped
  3   | (13/13) Accurately ripped
  4   | (13/13) Accurately ripped
  5   | (13/13) Accurately ripped
  6   | (13/13) Accurately ripped
  7   | (13/13) Accurately ripped
  8   | (13/13) Accurately ripped
  9   | (13/13) Accurately ripped
 10   | (13/13) Accurately ripped
 11   | (13/13) Accurately ripped
 12   | (13/13) Accurately ripped
 13   | (12/13) Accurately ripped


==== Log checksum 73A1CA27C6DA873CE76C210D21771BE534568DD3F11DFD3B678B8FCCA92940BA ====
->
=========================================================================================================================================================
->
CD4
->
Exact Audio Copy V1.3 from 2. September 2016

EAC extraction logfile from 27. October 2019, 9:14

Whitesnake / Monitor Mixes, April 1989

Used drive  : PLEXTOR BD-R  PX-B950SA   Adapter: 1  ID: 1

Read mode               : Secure
Utilize accurate stream : Yes
Defeat audio cache      : Yes
Make use of C2 pointers : No

Read offset correction                      : 6
Overread into Lead-In and Lead-Out          : No
Fill up missing offset samples with silence : Yes
Delete leading and trailing silent blocks   : No
Null samples used in CRC calculations       : Yes
Used interface                              : Native Win32 interface for Win NT & 2000

Used output format : Internal WAV Routines
Sample format      : 44.100 Hz; 16 Bit; Stereo


TOC of the extracted CD

     Track |   Start  |  Length  | Start sector | End sector 
    ---------------------------------------------------------
        1  |  0:00.00 |  4:56.70 |         0    |    22269   
        2  |  4:56.70 |  3:28.73 |     22270    |    37942   
        3  |  8:25.68 |  4:38.10 |     37943    |    58802   
        4  | 13:04.03 |  5:51.71 |     58803    |    85198   
        5  | 18:55.74 |  4:00.40 |     85199    |   103238   
        6  | 22:56.39 |  4:10.12 |    103239    |   122000   
        7  | 27:06.51 |  5:25.10 |    122001    |   146385   
        8  | 32:31.61 |  4:15.16 |    146386    |   165526   
        9  | 36:47.02 |  4:56.37 |    165527    |   187763   
       10  | 41:43.39 |  6:08.55 |    187764    |   215418   
       11  | 47:52.19 |  4:32.45 |    215419    |   235863   
       12  | 52:24.64 |  3:36.49 |    235864    |   252112   
       13  | 56:01.38 |  4:34.73 |    252113    |   272735   
       14  | 60:36.36 |  4:30.45 |    272736    |   293030   
       15  | 65:07.06 |  4:41.15 |    293031    |   314120   
       16  | 69:48.21 |  1:36.34 |    314121    |   321354   


Range status and errors

Selected range

     Filename C:\Whitesnake\1989 Slip Of The Tongue (7-Disc Box Set Rhino Records 2019)\CD4 Monitor Mixes, April 1989\Whitesnake - Monitor Mixes, April 1989.wav

     Peak level 99.4 %
     Extraction speed 8.0 X
     Range quality 100.0 %
     Test CRC D1A451E2
     Copy CRC D1A451E2
     Copy OK

No errors occurred

 
AccurateRip summary
 
Track  1  not present in database
Track  2  not present in database
Track  3  not present in database
Track  4  not present in database
Track  5  not present in database
Track  6  not present in database
Track  7  not present in database
Track  8  not present in database
Track  9  not present in database
Track 10  not present in database
Track 11  not present in database
Track 12  not present in database
Track 13  not present in database
Track 14  not present in database
Track 15  not present in database
Track 16  not present in database
 
None of the tracks are present in the AccurateRip database

End of status report

---- CUETools DB Plugin V2.1.6

[CTDB TOCID: DmkjWjI6Q0EJ0YVYvJsbV7Was4E-] found
Submit result: DmkjWjI6Q0EJ0YVYvJsbV7Was4E- has been confirmed
Track | CTDB Status
  1   | (16/16) Accurately ripped
  2   | (16/16) Accurately ripped
  3   | (16/16) Accurately ripped
  4   | (16/16) Accurately ripped
  5   | (16/16) Accurately ripped
  6   | (16/16) Accurately ripped
  7   | (16/16) Accurately ripped
  8   | (16/16) Accurately ripped
  9   | (16/16) Accurately ripped
 10   | (16/16) Accurately ripped
 11   | (16/16) Accurately ripped
 12   | (16/16) Accurately ripped
 13   | (16/16) Accurately ripped
 14   | (16/16) Accurately ripped
 15   | (16/16) Accurately ripped
 16   | (15/16) Accurately ripped


==== Log checksum 6863ACF4D79B1DBEB0FCDEAA43E513B1266CEA1895F3D4888E1CF26324F026F8 ====
->
=========================================================================================================================================================
->
CD5
->
Exact Audio Copy V1.3 from 2. September 2016

EAC extraction logfile from 27. October 2019, 8:42

Whitesnake  / A Trip To Granny’s House

Used drive  : PLEXTOR BD-R  PX-B950SA   Adapter: 1  ID: 1

Read mode               : Secure
Utilize accurate stream : Yes
Defeat audio cache      : Yes
Make use of C2 pointers : No

Read offset correction                      : 6
Overread into Lead-In and Lead-Out          : No
Fill up missing offset samples with silence : Yes
Delete leading and trailing silent blocks   : No
Null samples used in CRC calculations       : Yes
Used interface                              : Native Win32 interface for Win NT & 2000

Used output format : Internal WAV Routines
Sample format      : 44.100 Hz; 16 Bit; Stereo


TOC of the extracted CD

     Track |   Start  |  Length  | Start sector | End sector 
    ---------------------------------------------------------
        1  |  0:00.00 |  4:22.21 |         0    |    19670   
        2  |  4:22.21 |  5:18.60 |     19671    |    43580   
        3  |  9:41.06 |  6:01.62 |     43581    |    70717   
        4  | 15:42.68 |  4:41.12 |     70718    |    91804   
        5  | 20:24.05 |  5:37.69 |     91805    |   117148   
        6  | 26:01.74 |  7:01.20 |    117149    |   148743   
        7  | 33:03.19 |  4:37.30 |    148744    |   169548   
        8  | 37:40.49 |  4:27.74 |    169549    |   189647   
        9  | 42:08.48 |  5:03.55 |    189648    |   212427   
       10  | 47:12.28 |  1:07.55 |    212428    |   217507   
       11  | 48:20.08 |  1:51.68 |    217508    |   225900   
       12  | 50:12.01 |  1:24.18 |    225901    |   232218   
       13  | 51:36.19 |  4:33.40 |    232219    |   252733   
       14  | 56:09.59 |  2:55.04 |    252734    |   265862   
       15  | 59:04.63 |  1:34.41 |    265863    |   272953   
       16  | 60:39.29 |  2:20.04 |    272954    |   283457   
       17  | 62:59.33 |  1:23.38 |    283458    |   289720   
       18  | 64:22.71 |  0:39.23 |    289721    |   292668   
       19  | 65:02.19 |  1:04.47 |    292669    |   297515   
       20  | 66:06.66 |  0:39.62 |    297516    |   300502   
       21  | 66:46.53 |  2:46.41 |    300503    |   312993   
       22  | 69:33.19 |  2:10.50 |    312994    |   322793   
       23  | 71:43.69 |  2:58.73 |    322794    |   336216   


Range status and errors

Selected range

     Filename C:\Whitesnake\1989 Slip Of The Tongue (7-Disc Box Set Rhino Records 2019)\CD5 A Trip To Granny’s House\Whitesnake  - A Trip To Granny’s House.wav

     Peak level 100.0 %
     Extraction speed 8.3 X
     Range quality 100.0 %
     Test CRC 3BCD64F5
     Copy CRC 3BCD64F5
     Copy OK

No errors occurred

 
AccurateRip summary
 
Track  1  not present in database
Track  2  not present in database
Track  3  not present in database
Track  4  not present in database
Track  5  not present in database
Track  6  not present in database
Track  7  not present in database
Track  8  not present in database
Track  9  not present in database
Track 10  not present in database
Track 11  not present in database
Track 12  not present in database
Track 13  not present in database
Track 14  not present in database
Track 15  not present in database
Track 16  not present in database
Track 17  not present in database
Track 18  not present in database
Track 19  not present in database
Track 20  not present in database
Track 21  not present in database
Track 22  not present in database
Track 23  not present in database
 
None of the tracks are present in the AccurateRip database

End of status report

---- CUETools DB Plugin V2.1.6

[CTDB TOCID: USSm0FoTqjw6BUcMrKn8zTvuyJk-] found
Submit result: USSm0FoTqjw6BUcMrKn8zTvuyJk- has been confirmed
Track | CTDB Status
  1   | (14/14) Accurately ripped
  2   | (14/14) Accurately ripped
  3   | (14/14) Accurately ripped
  4   | (14/14) Accurately ripped
  5   | (14/14) Accurately ripped
  6   | (14/14) Accurately ripped
  7   | (14/14) Accurately ripped
  8   | (14/14) Accurately ripped
  9   | (14/14) Accurately ripped
 10   | (14/14) Accurately ripped
 11   | (14/14) Accurately ripped
 12   | (14/14) Accurately ripped
 13   | (14/14) Accurately ripped
 14   | (14/14) Accurately ripped
 15   | (14/14) Accurately ripped
 16   | (14/14) Accurately ripped
 17   | (14/14) Accurately ripped
 18   | (14/14) Accurately ripped
 19   | (14/14) Accurately ripped
 20   | (14/14) Accurately ripped
 21   | (14/14) Accurately ripped
 22   | (14/14) Accurately ripped
 23   | (14/14) Accurately ripped


==== Log checksum B29F5DF8DAB393CB07C0D0270270BF3D6D7104399BDA48B2F246209C0CAA6238 ====
->
=========================================================================================================================================================
->
CD6
->
Exact Audio Copy V1.3 from 2. September 2016

EAC extraction logfile from 27. October 2019, 8:10

Whitesnake  / Live At Donington 1990

Used drive  : PLEXTOR BD-R  PX-B950SA   Adapter: 1  ID: 1

Read mode               : Secure
Utilize accurate stream : Yes
Defeat audio cache      : Yes
Make use of C2 pointers : No

Read offset correction                      : 6
Overread into Lead-In and Lead-Out          : No
Fill up missing offset samples with silence : Yes
Delete leading and trailing silent blocks   : No
Null samples used in CRC calculations       : Yes
Used interface                              : Native Win32 interface for Win NT & 2000

Used output format : Internal WAV Routines
Sample format      : 44.100 Hz; 16 Bit; Stereo


TOC of the extracted CD

     Track |   Start  |  Length  | Start sector | End sector 
    ---------------------------------------------------------
        1  |  0:00.00 |  6:47.03 |         0    |    30527   
        2  |  6:47.03 |  5:02.45 |     30528    |    53222   
        3  | 11:49.48 |  5:55.42 |     53223    |    79889   
        4  | 17:45.15 |  7:40.22 |     79890    |   114411   
        5  | 25:25.37 |  4:59.13 |    114412    |   136849   
        6  | 30:24.50 |  4:45.50 |    136850    |   158274   
        7  | 35:10.25 |  4:28.32 |    158275    |   178406   
        8  | 39:38.57 |  8:01.59 |    178407    |   214540   
        9  | 47:40.41 |  5:24.67 |    214541    |   238907   
       10  | 53:05.33 |  5:10.59 |    238908    |   262216   
       11  | 58:16.17 |  6:18.18 |    262217    |   290584   
       12  | 64:34.35 |  5:56.73 |    290585    |   317357   
       13  | 70:31.33 |  7:59.28 |    317358    |   353310   


Range status and errors

Selected range

     Filename C:\Whitesnake\1989 Slip Of The Tongue (7-Disc Box Set Rhino Records 2019)\CD6 Live At Donington 1990\Whitesnake  - Live At Donington 1990.wav

     Peak level 100.0 %
     Extraction speed 8.5 X
     Range quality 100.0 %
     Test CRC F5FE217E
     Copy CRC F5FE217E
     Copy OK

No errors occurred

 
AccurateRip summary
 
Track  1  not present in database
Track  2  not present in database
Track  3  not present in database
Track  4  not present in database
Track  5  not present in database
Track  6  not present in database
Track  7  not present in database
Track  8  not present in database
Track  9  not present in database
Track 10  not present in database
Track 11  not present in database
Track 12  not present in database
Track 13  not present in database
 
None of the tracks are present in the AccurateRip database

End of status report

---- CUETools DB Plugin V2.1.6

[CTDB TOCID: LYGZU2skd5550_lRClmE4leMS7o-] found
Submit result: LYGZU2skd5550_lRClmE4leMS7o- has been confirmed
Track | CTDB Status
  1   | (12/12) Accurately ripped
  2   | (12/12) Accurately ripped
  3   | (12/12) Accurately ripped
  4   | (12/12) Accurately ripped
  5   | (12/12) Accurately ripped
  6   | (12/12) Accurately ripped
  7   | (12/12) Accurately ripped
  8   | (12/12) Accurately ripped
  9   | (12/12) Accurately ripped
 10   | (12/12) Accurately ripped
 11   | (12/12) Accurately ripped
 12   | (12/12) Accurately ripped
 13   | (11/12) Accurately ripped


==== Log checksum 1A5D33C99142484EF2679B134699CF406C22BAB92F60AF5E0180905E9B94CDE5 ====




Create a new paste based on this one


Comments: